(Score) Шпионский мост / Bridge of Spies (by Thomas Newman) - 2015, FLAC (tracks+.cue), lossless


Статистика раздачи [Обновить пиров]
Размер:  225 MB   |    Зарегистрирован:  10 месяцев 15 дней   |    Скачан:  0 раз
Сидов:  2  [  0 KB/s  ]   Подробная статистика пиров
 
   
 
 
 

[Цитировать]

Шпионский мост / Bridge of Spies-Жанр: Score
Композитор: Thomas Newman
Год выпуска диска: 2015
Производитель диска: US
Издатель (лейбл): Hollywood Records
Номер по каталогу: D002280802-Аудиокодек: FLAC (*.flac)
Тип рипа: tracks+.cue
Битрейт аудио: lossless
Продолжительность: 00:48:32
Источник: lztr.us / phil_harmonic
Наличие сканов в содержимом раздачи: да

Треклист

1. Hall of Trade Unions, Moscow (00:43)
2. Sunlit Silence (04:04)
3. Ejection Protoco (01:56)
4. Standing Man (02:11)
5. Rain (01:21)
6. Lt. Francis Gary Powers (03:04)
7. The Article (01:36)
8. The Wall (02:14)
9. Private Citizen (01:35)
10. The Impatient Plan (01:35)
11. West Berlin (01:12)
12. Friedrichstraße Station (01:26)
13. Glienicke Bridge (10:51)
14. Homecoming (07:46)
15. Bridge of Spies (End Title) (06:57)

Лог создания рипа

X Lossless Decoder version 20141129a (148.2)
XLD extraction logfile from 2015-10-21 19:35:07 -0700
Thomas Newman / Bridge of Spies
Used drive : PIONEER BD-RW BDR-207D (revision 1.10)Media type : Pressed CD
Ripper mode : XLD Secure RipperDisable audio cache : OK for the drive with a cache less than 1375KiBMake use of C2 pointers : NORead offset correction : 667Max retry count : 100Gap status : Analyzed, Appended
TOC of the extracted CD Track | Start | Length | Start sector | End sector --------------------------------------------------------- 1 | 00:00:00 | 00:43:35 | 0 | 3259 2 | 00:43:35 | 04:04:14 | 3260 | 21573 3 | 04:47:49 | 01:56:28 | 21574 | 30301 4 | 06:44:02 | 02:11:49 | 30302 | 40175 5 | 08:55:51 | 01:21:69 | 40176 | 46319 6 | 10:17:45 | 03:04:10 | 46320 | 60129 7 | 13:21:55 | 01:36:24 | 60130 | 67353 8 | 14:58:04 | 02:14:07 | 67354 | 77410 9 | 17:12:11 | 01:35:69 | 77411 | 84604 10 | 18:48:05 | 01:35:13 | 84605 | 91742 11 | 20:23:18 | 01:12:66 | 91743 | 97208 12 | 21:36:09 | 01:20:67 | 97209 | 103275 13 | 22:57:01 | 10:51:30 | 103276 | 152130 14 | 33:48:31 | 07:46:62 | 152131 | 187142 15 | 41:35:18 | 06:57:43 | 187143 | 218460
AccurateRip Summary Disc not found in AccurateRip DB.
All Tracks Album gain : -1.84 dB Peak : 1.000000 Statistics Read error : 0 Jitter error (maybe fixed) : 0 Retry sector count : 0 Damaged sector count : 0
Track 01 Filename : /Volumes/Goo 3/Thomas Newman - Bridge of Spies (2015) [FLAC]/Thomas Newman - Bridge of Spies (2015) [FLAC]/01 Hall of Trade Unions, Moscow.flac Pre-gap length : 00:02:00
Track gain : -3.40 dB Peak : 0.632324 CRC32 hash (test run) : 1DBC518A CRC32 hash : 1DBC518A CRC32 hash (skip zero) : 324CA809 AccurateRip v1 signature : 573A6B36 AccurateRip v2 signature : 3830C967 ->Track not present in AccurateRip database. Statistics Read error : 0 Jitter error (maybe fixed) : 0 Retry sector count : 0 Damaged sector count : 0
Track 02 Filename : /Volumes/Goo 3/Thomas Newman - Bridge of Spies (2015) [FLAC]/Thomas Newman - Bridge of Spies (2015) [FLAC]/02 Sunlit Silence.flac
Track gain : -3.27 dB Peak : 1.000000 CRC32 hash (test run) : 47E3A35B CRC32 hash : 47E3A35B CRC32 hash (skip zero) : 503B104E AccurateRip v1 signature : 6D896D2E AccurateRip v2 signature : 34212176 ->Track not present in AccurateRip database. Statistics Read error : 0 Jitter error (maybe fixed) : 0 Retry sector count : 0 Damaged sector count : 0
Track 03 Filename : /Volumes/Goo 3/Thomas Newman - Bridge of Spies (2015) [FLAC]/Thomas Newman - Bridge of Spies (2015) [FLAC]/03 Ejection Protocol.flac
Track gain : 1.69 dB Peak : 0.754608 CRC32 hash (test run) : 5626A3FB CRC32 hash : 5626A3FB CRC32 hash (skip zero) : 70BEC3EB AccurateRip v1 signature : CA5B29E9 AccurateRip v2 signature : E20034E3 ->Track not present in AccurateRip database. Statistics Read error : 0 Jitter error (maybe fixed) : 0 Retry sector count : 0 Damaged sector count : 0
Track 04 Filename : /Volumes/Goo 3/Thomas Newman - Bridge of Spies (2015) [FLAC]/Thomas Newman - Bridge of Spies (2015) [FLAC]/04 Standing Man.flac
Track gain : 6.45 dB Peak : 0.473389 CRC32 hash (test run) : 8E7CF4AF CRC32 hash : 8E7CF4AF CRC32 hash (skip zero) : 5FE45F9B AccurateRip v1 signature : 62CCB086 AccurateRip v2 signature : 7A9854B0 ->Track not present in AccurateRip database. Statistics Read error : 0 Jitter error (maybe fixed) : 0 Retry sector count : 0 Damaged sector count : 0
Track 05 Filename : /Volumes/Goo 3/Thomas Newman - Bridge of Spies (2015) [FLAC]/Thomas Newman - Bridge of Spies (2015) [FLAC]/05 Rain.flac
Track gain : 0.76 dB Peak : 0.658875 CRC32 hash (test run) : 482B0884 CRC32 hash : 482B0884 CRC32 hash (skip zero) : A33C2456 AccurateRip v1 signature : 174EF350 AccurateRip v2 signature : 6B6E8246 ->Track not present in AccurateRip database. Statistics Read error : 0 Jitter error (maybe fixed) : 0 Retry sector count : 0 Damaged sector count : 0
Track 06 Filename : /Volumes/Goo 3/Thomas Newman - Bridge of Spies (2015) [FLAC]/Thomas Newman - Bridge of Spies (2015) [FLAC]/06 Lt. Francis Gary Powers.flac
Track gain : -1.91 dB Peak : 1.000000 CRC32 hash (test run) : 69397889 CRC32 hash : 69397889 CRC32 hash (skip zero) : 44DF40C5 AccurateRip v1 signature : BCDD7A40 AccurateRip v2 signature : E437055E ->Track not present in AccurateRip database. Statistics Read error : 0 Jitter error (maybe fixed) : 0 Retry sector count : 0 Damaged sector count : 0
Track 07 Filename : /Volumes/Goo 3/Thomas Newman - Bridge of Spies (2015) [FLAC]/Thomas Newman - Bridge of Spies (2015) [FLAC]/07 The Article.flac
Track gain : -2.00 dB Peak : 0.986664 CRC32 hash (test run) : DA7CB69A CRC32 hash : DA7CB69A CRC32 hash (skip zero) : 3AF78CA0 AccurateRip v1 signature : 65D9D0D5 AccurateRip v2 signature : F5FD0220 ->Track not present in AccurateRip database. Statistics Read error : 0 Jitter error (maybe fixed) : 0 Retry sector count : 0 Damaged sector count : 0
Track 08 Filename : /Volumes/Goo 3/Thomas Newman - Bridge of Spies (2015) [FLAC]/Thomas Newman - Bridge of Spies (2015) [FLAC]/08 The Wall.flac
Track gain : -5.04 dB Peak : 1.000000 CRC32 hash (test run) : C4ECBABA CRC32 hash : C4ECBABA CRC32 hash (skip zero) : BF8B6556 AccurateRip v1 signature : 9A339729 AccurateRip v2 signature : 8C305F21 ->Track not present in AccurateRip database. Statistics Read error : 0 Jitter error (maybe fixed) : 0 Retry sector count : 0 Damaged sector count : 0
Track 09 Filename : /Volumes/Goo 3/Thomas Newman - Bridge of Spies (2015) [FLAC]/Thomas Newman - Bridge of Spies (2015) [FLAC]/09 Private Citizen.flac
Track gain : 6.31 dB Peak : 0.418610 CRC32 hash (test run) : 4A6AF645 CRC32 hash : 4A6AF645 CRC32 hash (skip zero) : C5294762 AccurateRip v1 signature : 82533481 AccurateRip v2 signature : E39FE0FC ->Track not present in AccurateRip database. Statistics Read error : 0 Jitter error (maybe fixed) : 0 Retry sector count : 0 Damaged sector count : 0
Track 10 Filename : /Volumes/Goo 3/Thomas Newman - Bridge of Spies (2015) [FLAC]/Thomas Newman - Bridge of Spies (2015) [FLAC]/10 The Impatient Plan.flac
Track gain : 9.03 dB Peak : 0.587036 CRC32 hash (test run) : 704A3285 CRC32 hash : 704A3285 CRC32 hash (skip zero) : F1575E1A AccurateRip v1 signature : 426F9C62 AccurateRip v2 signature : 2E0A3104 ->Track not present in AccurateRip database. Statistics Read error : 0 Jitter error (maybe fixed) : 0 Retry sector count : 0 Damaged sector count : 0
Track 11 Filename : /Volumes/Goo 3/Thomas Newman - Bridge of Spies (2015) [FLAC]/Thomas Newman - Bridge of Spies (2015) [FLAC]/11 West Berlin.flac
Track gain : -4.65 dB Peak : 1.000000 CRC32 hash (test run) : 1B7C6D52 CRC32 hash : 1B7C6D52 CRC32 hash (skip zero) : 37B9DDB0 AccurateRip v1 signature : E395F916 AccurateRip v2 signature : A70226AC ->Track not present in AccurateRip database. Statistics Read error : 0 Jitter error (maybe fixed) : 0 Retry sector count : 0 Damaged sector count : 0
Track 12 Filename : /Volumes/Goo 3/Thomas Newman - Bridge of Spies (2015) [FLAC]/Thomas Newman - Bridge of Spies (2015) [FLAC]/12 FriedrichstraГџe Station.flac
Track gain : 0.88 dB Peak : 0.929443 CRC32 hash (test run) : 4FBB6777 CRC32 hash : 4FBB6777 CRC32 hash (skip zero) : 20066BE7 AccurateRip v1 signature : BDEEE02B AccurateRip v2 signature : F7966866 ->Track not present in AccurateRip database. Statistics Read error : 0 Jitter error (maybe fixed) : 0 Retry sector count : 0 Damaged sector count : 0
Track 13 Filename : /Volumes/Goo 3/Thomas Newman - Bridge of Spies (2015) [FLAC]/Thomas Newman - Bridge of Spies (2015) [FLAC]/13 Glienicke Bridge.flac
Track gain : -2.39 dB Peak : 1.000000 CRC32 hash (test run) : AB499649 CRC32 hash : AB499649 CRC32 hash (skip zero) : B4C5ACE6 AccurateRip v1 signature : A8896A8B AccurateRip v2 signature : FB8B2042 ->Track not present in AccurateRip database. Statistics Read error : 0 Jitter error (maybe fixed) : 0 Retry sector count : 0 Damaged sector count : 0
Track 14 Filename : /Volumes/Goo 3/Thomas Newman - Bridge of Spies (2015) [FLAC]/Thomas Newman - Bridge of Spies (2015) [FLAC]/14 Homecoming.flac
Track gain : -1.01 dB Peak : 0.924438 CRC32 hash (test run) : C2339729 CRC32 hash : C2339729 CRC32 hash (skip zero) : 81E36B6A AccurateRip v1 signature : 977E7D50 AccurateRip v2 signature : 486EB266 ->Track not present in AccurateRip database. Statistics Read error : 0 Jitter error (maybe fixed) : 0 Retry sector count : 0 Damaged sector count : 0
Track 15 Filename : /Volumes/Goo 3/Thomas Newman - Bridge of Spies (2015) [FLAC]/Thomas Newman - Bridge of Spies (2015) [FLAC]/15 Bridge of Spies (End Title).flac
Track gain : -1.51 dB Peak : 1.000000 CRC32 hash (test run) : 39AEA0B7 CRC32 hash : 39AEA0B7 CRC32 hash (skip zero) : 1E16233F AccurateRip v1 signature : 9309A4A8 AccurateRip v2 signature : CC74D734 ->Track not present in AccurateRip database. Statistics Read error : 0 Jitter error (maybe fixed) : 0 Retry sector count : 0 Damaged sector count : 0
No errors occurred
End of status report
-----BEGIN XLD SIGNATURE-----tRLMo.j3Nl1pIsHrasMuRXQ1PdtdDOVmK0AXjF2K6bQN.6_SbD2o_ZhsnFGux0mHrWA9hF8xZtiSVQKSZoZBVVg.6SWj0g1HZH8XwPS-----END XLD SIGNATURE-----

Содержание индексной карты (.CUE)

TITLE "Bridge of Spies"PERFORMER "Thomas Newman"CATALOG 0050087333720REM GENRE "Film Scores"REM DATE "2015"REM DISCID B50B600FREM REPLAYGAIN_ALBUM_GAIN -1.84 dBREM REPLAYGAIN_ALBUM_PEAK 1.000000FILE "01 Hall of Trade Unions, Moscow.flac" WAVE TRACK 01 AUDIO TITLE "Hall of Trade Unions, Moscow" ISRC USHR11536709 REM REPLAYGAIN_TRACK_GAIN -3.40 dB REM REPLAYGAIN_TRACK_PEAK 0.632324 INDEX 01 00:00:00FILE "02 Sunlit Silence.flac" WAVE TRACK 02 AUDIO TITLE "Sunlit Silence" ISRC USHR11536710 REM REPLAYGAIN_TRACK_GAIN -3.27 dB REM REPLAYGAIN_TRACK_PEAK 1.000000 INDEX 01 00:00:00FILE "03 Ejection Protocol.flac" WAVE TRACK 03 AUDIO TITLE "Ejection Protocol" ISRC USHR11536711 REM REPLAYGAIN_TRACK_GAIN 1.69 dB REM REPLAYGAIN_TRACK_PEAK 0.754608 INDEX 01 00:00:00FILE "04 Standing Man.flac" WAVE TRACK 04 AUDIO TITLE "Standing Man" ISRC USHR11536712 REM REPLAYGAIN_TRACK_GAIN 6.45 dB REM REPLAYGAIN_TRACK_PEAK 0.473389 INDEX 01 00:00:00FILE "05 Rain.flac" WAVE TRACK 05 AUDIO TITLE "Rain" ISRC USHR11536713 REM REPLAYGAIN_TRACK_GAIN 0.76 dB REM REPLAYGAIN_TRACK_PEAK 0.658875 INDEX 01 00:00:00FILE "06 Lt. Francis Gary Powers.flac" WAVE TRACK 06 AUDIO TITLE "Lt. Francis Gary Powers" ISRC USHR11536714 REM REPLAYGAIN_TRACK_GAIN -1.91 dB REM REPLAYGAIN_TRACK_PEAK 1.000000 INDEX 01 00:00:00FILE "07 The Article.flac" WAVE TRACK 07 AUDIO TITLE "The Article" ISRC USHR11536715 REM REPLAYGAIN_TRACK_GAIN -2.00 dB REM REPLAYGAIN_TRACK_PEAK 0.986664 INDEX 01 00:00:00FILE "08 The Wall.flac" WAVE TRACK 08 AUDIO TITLE "The Wall" ISRC USHR11536716 REM REPLAYGAIN_TRACK_GAIN -5.04 dB REM REPLAYGAIN_TRACK_PEAK 1.000000 INDEX 01 00:00:00FILE "09 Private Citizen.flac" WAVE TRACK 09 AUDIO TITLE "Private Citizen" ISRC USHR11536717 REM REPLAYGAIN_TRACK_GAIN 6.31 dB REM REPLAYGAIN_TRACK_PEAK 0.418610 INDEX 01 00:00:00FILE "10 The Impatient Plan.flac" WAVE TRACK 10 AUDIO TITLE "The Impatient Plan" ISRC USHR11536718 REM REPLAYGAIN_TRACK_GAIN 9.03 dB REM REPLAYGAIN_TRACK_PEAK 0.587036 INDEX 01 00:00:00FILE "11 West Berlin.flac" WAVE TRACK 11 AUDIO TITLE "West Berlin" ISRC USHR11536719 REM REPLAYGAIN_TRACK_GAIN -4.65 dB REM REPLAYGAIN_TRACK_PEAK 1.000000 INDEX 01 00:00:00FILE "12 Friedrichstrasse Station.flac" WAVE TRACK 12 AUDIO TITLE "Friedrichstrasse Station" ISRC USHR11536720 REM REPLAYGAIN_TRACK_GAIN 0.88 dB REM REPLAYGAIN_TRACK_PEAK 0.929443 INDEX 01 00:00:00FILE "13 Glienicke Bridge.flac" WAVE TRACK 13 AUDIO TITLE "Glienicke Bridge" ISRC USHR11536721 REM REPLAYGAIN_TRACK_GAIN -2.39 dB REM REPLAYGAIN_TRACK_PEAK 1.000000 INDEX 01 00:00:00FILE "14 Homecoming.flac" WAVE TRACK 14 AUDIO TITLE "Homecoming" ISRC USHR11536722 REM REPLAYGAIN_TRACK_GAIN -1.01 dB REM REPLAYGAIN_TRACK_PEAK 0.924438 INDEX 01 00:00:00FILE "15 Bridge of Spies (End Title).flac" WAVE TRACK 15 AUDIO TITLE "Bridge of Spies (End Title)" ISRC USHR11536723 REM REPLAYGAIN_TRACK_GAIN -1.51 dB REM REPLAYGAIN_TRACK_PEAK 1.000000 INDEX 01 00:00:00
[teatrix.ru].t13120.torrent 
Торрент: Зарегистрирован [ 2016-01-21 06:25 ] · AF268EBBFDF011781A17A39053431F8EB8840F89

Скачать .torrent

Скачать

19 KB

Статус: проверено
Скачан: 0 раз
Размер: 225 MB
terms.php



Быстрый ответ

Имя:

      
Для отправки сообщений необходимо включить JavaScript
Показать сообщения:    

Текущее время: 05-Дек 07:25

Часовой пояс: UTC + 3


Вы можете начинать темы
Вы можете отвечать на сообщения
Вы не можете редактировать свои сообщения
Вы не можете удалять свои сообщения
Вы не можете голосовать в опросах
Вы не можете прикреплять файлы к сообщениям
Вы можете скачивать файлы