Но молоко важно / But milk is important (Эирик Гронмо Бьёрнсен / Eirik Grønmo Bjørnsen, Анна Мантзарис / Anna Mantzaris) [2012, Норвегия, авторская анимация, WEBRip] original + rus sub


 

[Цитировать]

Но молоко важно / But milk is important
Страна: Норвегия
Жанр: авторская анимация
Год выпуска: 2012
Продолжительность: 00:10:38
Перевод: субтитры (alex.n42)
Cубтитры: русские
Режиссёры: Эирик Гронмо Бьёрнсен / Eirik Grønmo Bjørnsen, Анна Мантзарис / Anna Mantzaris
Описание: Герой фильма - страдающий социофобией человек, который боится даже выходить на улицу. За продуктами для него ходит дворник. Но однажды этот дворник умирает от сердечного приступа на глазах у своего подопечного. Это повергает социофоба в панику. На другой день в его квартире появляется крупное мохнатое существо, впрочем, очень добродушное, хоть и молчаливое...
Доп. информация: 22 фестивальные награды
Качество видео: WEBRip
Формат видео: AVI
Видео: 1842 kbps, 720х400 (16:9), 25.000 fps, MPEG-4 Visual (XviD)
Аудио: 192 kbps, 41.1 kHz, 2 channels, MPEG Audio (MP3)
Формат субтитров: softsub (SRT)

MediaInfo

General
Complete name : But milk is important (2012).avi
Format : AVI
Format/Info : Audio Video Interleave
File size : 155 MiB
Duration : 10mn 38s
Overall bit rate : 2 042 Kbps
Writing library : VirtualDub build 35491/release
Video
ID : 0
Format : MPEG-4 Visual
Format profile : Advanced Simple@L5
Format settings, BVOP : 2
Format settings, QPel : No
Format settings, GMC : No warppoints
Format settings, Matrix : Default (H.263)
Codec ID : XVID
Codec ID/Hint : XviD
Duration : 10mn 38s
Bit rate : 1 842 Kbps
Width : 720 pixels
Height : 400 pixels
Display aspect ratio : 16:9
Frame rate : 25.000 fps
Color space : YUV
Chroma subsampling : 4:2:0
Bit depth : 8 bits
Scan type : Progressive
Compression mode : Lossy
Bits/(Pixel*Frame) : 0.256
Stream size : 140 MiB (90%)
Writing library : XviD 64
Audio
ID : 1
Format : MPEG Audio
Format version : Version 1
Format profile : Layer 3
Mode : Joint stereo
Codec ID : 55
Codec ID/Hint : MP3
Duration : 10mn 33s
Bit rate mode : Constant
Bit rate : 192 Kbps
Channel(s) : 2 channels
Sampling rate : 44.1 KHz
Compression mode : Lossy
Stream size : 14.5 MiB (9%)
Alignment : Split accross interleaves
Interleave, duration : 40 ms (1.01 video frame)
Interleave, preload duration : 500 ms

Скриншот c названием фильма

Скриншоты




Показать сообщения:    

Текущее время: 09-Дек 12:40

Часовой пояс: UTC + 3


Вы не можете начинать темы
Вы не можете отвечать на сообщения
Вы не можете редактировать свои сообщения
Вы не можете удалять свои сообщения
Вы не можете голосовать в опросах
Вы не можете прикреплять файлы к сообщениям
Вы не можете скачивать файлы