Глюк - Орфей и Эвридика / Gluck - Orphee et Eurydice (Leopold Simoneau, Pierrette Alarie, Claire Gagnier) (Otto-Werner Mueller / Ludmilla Chiriaeff) [1961/2007, Opera, DVDRip-AVC] Sub [Русские][Eng, Ger, Fre, Ita.] (French version)


 

[Цитировать]

-Канадская телерадиовещательная корпорация представляет
КРИСТОФ Виллибальд Г Л Ю К
2 июля (July 2,) 1714 — 15 ноября (November 15,) 1787
»«ОРФЕЙ и ЭВРИДИКА»«
Либретто Раньеро да Кальцабиджи, французский текст - Пьер-Луи Молин
--

Год записи: 1961
Год выхода: 2007
Лейбл/Страна: VAI · USA
Жанр: TV Broadcast, Opera
Язык: Французский
ПЕРЕВОД: Профессиональный
при участии © lisok
Субтитры/Subtitles: РУССКИЕ,
English, German, French, Italian в составе контейнера
Продолжительность: 88 min.
ОРФЕЙ Леопольд СИМОНО Léopold Simoneau
ЭВРИДИКА Пьеретта АЛАРИ Pierrette Alarie
АМУР Клер ГАНЬЕ Claire Gagnier

ХОР и ОРКЕСТР Канадской ТРВ корпорации
ДИРИЖЁР Отто-Вернер МЮЭЛЛЕР Otto-Werner Mueller
РЕЖИССЁР Людмила ШИРЯЕФФ Ludmilla Chiriaeff

Качество видео: DVDRip-AVC
Исходник: DVD5 [Спасибо, Инжир]
Контейнер: MKV
Аудио кодек: AC3
Видео поток: 716x480@540, 1327 kbps, 29,970 fps.
Аудио поток: Français, 192 kbps, 48,0 KHz, 16 bit, 2 ch original
Навигация по главам: Есть

Скриншоты

MediaInfox264.log


avs [info]: 716x480p 8:9 @ 30000/1001 fps (cfr)
x264 [info]: using SAR=8/9
x264 [info]: using cpu capabilities: MMX2 SSE2Fast LZCNT
x264 [info]: profile High, level 4.1
x264 [info]: frame I:675 Avg QP:19.42 size: 30268
x264 [info]: frame P:33567 Avg QP:20.60 size: 13895
x264 [info]: frame B:124704 Avg QP:22.96 size: 3153
x264 [info]: consecutive B-frames: 2.3% 0.1% 1.9% 8.7% 57.6% 28.9% 0.5%
x264 [info]: mb I I16..4: 2.7% 87.1% 10.2%
x264 [info]: mb P I16..4: 0.0% 6.5% 0.5% P16..4: 34.4% 42.7% 13.7% 0.0% 0.0% skip: 2.2%
x264 [info]: mb B I16..4: 0.0% 0.4% 0.0% B16..8: 40.9% 17.5% 2.0% direct: 4.2% skip:35.0% L0:35.4% L1:48.3% BI:16.4%
x264 [info]: 8x8 transform intra:91.6% inter:62.4%
x264 [info]: coded y,uvDC,uvAC intra: 98.2% 0.0% 0.0% inter: 22.9% 0.0% 0.0%
x264 [info]: i16 v,h,dc,p: 14% 20% 16% 51%
x264 [info]: i8 v,h,dc,ddl,ddr,vr,hd,vl,hu: 10% 9% 5% 9% 13% 14% 14% 12% 14%
x264 [info]: i4 v,h,dc,ddl,ddr,vr,hd,vl,hu: 8% 10% 1% 7% 15% 15% 17% 11% 14%
x264 [info]: i8c dc,h,v,p: 67% 33% 0% 0%
x264 [info]: Weighted P-Frames: Y:12.1% UV:0.2%
x264 [info]: ref P L0: 40.9% 13.0% 20.6% 7.3% 7.1% 5.1% 5.3% 0.7% 0.1%
x264 [info]: ref B L0: 87.9% 7.5% 2.2% 1.2% 0.7% 0.6%
x264 [info]: ref B L1: 98.1% 1.9%
x264 [info]: kb/s:1327.40
-
General
Unique ID : 187473509957839027803472676468601355204 (0x8D0A15AC53276BA7B7DE258825377BC4)
Complete name : D:\Temp Ru.Tracker\Gluck - Orphee et Eurydice (Montreal, 1961).mkv
Format : Matroska
Format version : Version 4 / Version 2
File size : 964 MiB
Duration : 1h 28mn
Overall bit rate : 1 524 Kbps
Encoded date : UTC 2016-01-21 09:21:45
Writing application : mkvmerge v8.3.0 ('Over the Horizon') 32bit
Writing library : libebml v1.3.1 + libmatroska v1.4.2
Video
ID : 1
Format : AVC
Format/Info : Advanced Video Codec
Format profile : High@L4.1
Format settings, CABAC : Yes
Format settings, ReFrames : 7 frames
Codec ID : V_MPEG4/ISO/AVC
Duration : 1h 28mn
Bit rate : 1 302 Kbps
Width : 716 pixels
Height : 480 pixels
Display aspect ratio : 4:3
Frame rate mode : Constant
Frame rate : 29.970 fps
Color space : YUV
Chroma subsampling : 4:2:0
Bit depth : 8 bits
Scan type : Progressive
Bits/(Pixel*Frame) : 0.126
Stream size : 823 MiB (85%)
Writing library : x264 core 146 r2538 121396c
Encoding settings : cabac=1 / ref=7 / deblock=1:-3:-3 / analyse=0x3:0x113 / me=umh / subme=11 / psy=1 / psy_rd=1.05:0.15 / mixed_ref=1 / me_range=32 / chroma_me=1 / trellis=2 / 8x8dct=1 / cqm=0 / deadzone=21,11 / fast_pskip=1 / chroma_qp_offset=-3 / threads=3 / lookahead_threads=1 / sliced_threads=0 / nr=0 / decimate=1 / interlaced=0 / bluray_compat=0 / constrained_intra=0 / bframes=6 / b_pyramid=2 / b_adapt=2 / b_bias=0 / direct=1 / weightb=1 / open_gop=0 / weightp=2 / keyint=250 / keyint_min=25 / scenecut=40 / intra_refresh=0 / rc_lookahead=40 / rc=crf / mbtree=0 / crf=19.0 / qcomp=0.65 / qpmin=0 / qpmax=69 / qpstep=4 / vbv_maxrate=14000 / vbv_bufsize=14000 / crf_max=0.0 / nal_hrd=none / filler=0 / ip_ratio=1.40 / pb_ratio=1.30 / aq=1:0.90
Language : English
Default : Yes
Forced : No
Audio
ID : 2
Format : AC-3
Format/Info : Audio Coding 3
Mode extension : CM (complete main)
Format settings, Endianness : Big
Codec ID : A_AC3
Duration : 1h 28mn
Bit rate mode : Constant
Bit rate : 192 Kbps
Channel(s) : 2 channels
Channel positions : Front: L R
Sampling rate : 48.0 KHz
Compression mode : Lossy
Stream size : 121 MiB (13%)
Language : French
Default : Yes
Forced : No
Text #1
ID : 3
Format : ASS
Codec ID : S_TEXT/ASS
Codec ID/Info : Advanced Sub Station Alpha
Compression mode : Lossless
Language : Russian
Default : Yes
Forced : Yes
Text #2
ID : 4
Format : VobSub
Muxing mode : zlib
Codec ID : S_VOBSUB
Codec ID/Info : Picture based subtitle format used on DVDs
Language : English
Default : No
Forced : No
Text #3
ID : 5
Format : VobSub
Muxing mode : zlib
Codec ID : S_VOBSUB
Codec ID/Info : Picture based subtitle format used on DVDs
Language : French
Default : No
Forced : No
Text #4
ID : 6
Format : VobSub
Muxing mode : zlib
Codec ID : S_VOBSUB
Codec ID/Info : Picture based subtitle format used on DVDs
Language : German
Default : No
Forced : No
Text #5
ID : 7
Format : VobSub
Muxing mode : zlib
Codec ID : S_VOBSUB
Codec ID/Info : Picture based subtitle format used on DVDs
Language : Italian
Default : No
Forced : No
Menu
00:00:17.100 : fr:Annonce
00:03:37.434 : fr:Acte 1
00:25:42.958 : fr:Annonce
00:28:36.198 : fr:Acte 2
00:36:15.457 : fr:Annonce
00:44:49.504 : fr:Acte 2
01:00:14.227 : fr:Annonce
01:00:42.022 : fr:Acte 3
***A spectacular television production
of the 1774 French version of the opera, with a tenor Orpheus



Показать сообщения:    

Текущее время: 06-Дек 13:10

Часовой пояс: UTC + 3


Вы не можете начинать темы
Вы не можете отвечать на сообщения
Вы не можете редактировать свои сообщения
Вы не можете удалять свои сообщения
Вы не можете голосовать в опросах
Вы не можете прикреплять файлы к сообщениям
Вы не можете скачивать файлы