(Classical) Mozart - Cosi Fan Tutte (Teodor Currentzis; Orchestra and Chorus of the Perm Opera and Ballet Theatre; Kermes, Ernman, Kasyan, Tarver, Maltman, Wolff) - 2014, FLAC (tracks+.cue) lossless


 

[Цитировать]

Wolfgang Amadeus Mozart - Così Fan Tutte (Teodor Currentzis)
Жанр: Classical
Год издания диска: 2014
Издатель (лейбл): Sony Classics
Номер по каталогу: 88765466162
Дата записи: 2013
Аудиокодек: FLAC
Тип рипа: tracks+.cue
Битрейт аудио: lossless
Продолжительность: 02:57:35
Источник: скачано из сети
Наличие сканов в содержимом раздачи: да
Исполнители:
Simone Kermes (Fiordiligi),
Malena Ernman (Dorabella),
Anna Kasyan (Despina),
Kenneth Tarver (Ferrando),
Christopher Maltman (Guglielmo),
Konstantin Wolff (Don Alfonso)
Orchestra and Chorus of the Perm Opera and Ballet Theatre
Teodor Currentzis

Треклист:

CD1
01. Ouvertura (03:53)
02. La mia Dorabella capace non e (No. 1, Terzetto: Ferrando, Don Alfonso, Guglielmo) (01:53)
03. Fuor la spada! (Recitativo: Guglielmo, Don Alfonso, Ferrando) (01:03)
04. E la fede delle femmine (No. 2, Terzetto: Ferrando, Don Alfonso, Guglielmo) (01:02)
05. Scioccherie di poeti! (Recitativo: Ferrando, Guglielmo, Don Alfonso) (01:19)
06. Una bella serenata (No. 3, Terzetto: Ferrando, Don Alfonso, Guglielmo) (02:16)
07. Ah guarda, o sorella (No. 4, Duetto: Fiordiligi, Dorabella) (05:10)
08. Mi par che stamattina (Recitativo: Fiordiligi, Dorabella, Don Alfonso) (01:16)
09. Vorrei dir, e cor non ho (No. 5, Aria: Don Alfonso) (00:45)
10. Stelle! Per carita, signor Alfonso (Recitativo: Fiordiligi, Don Alfonso, Dorabella) (01:05)
11. Sento, oh Dio, che questo piede (No. 6, Quintetto: Fiordiligi, Dorabella, Ferrando, Guglielmo, Don Alfonso) (04:10)
12. Non piangere, idol mio! (Recitativo: Guglielmo, Ferrando, Don Alfonso, Fiordiligi, Dorabella) (00:55)
13. Al fato dan legge (No. 7, Duettino: Ferrando, Guglielmo) (01:25)
14. La commedia e graziosa (Recitativo: Don Alfonso, Ferrando, Fiordiligi, Dorabella) (00:44)
15. Bella vita militar! (No. 8, Coro) (01:25)
16. Non v’e piu tempo, amici (Recitativo: Don Alfonso, Fiordiligi, Dorabella, Ferrando, Guglielmo) (00:32)
17. Di scrivermi ogni giorno (Recitativo: Fiordiligi, Dorabella, Ferrando, Guglielmo, Don Alfonso) (02:24)
18. Bella vita militar! (No. 9, Coro) (00:45)
19. Dove son? - Son partiti (Recitativo: Dorabella, Don Alfonso, Fiordiligi) (00:57)
20. Soave sia il vento (No. 10, Terzettino: Fiordiligi, Dorabella, Don Alfonso) (03:27)
21. Non son cattivo comico! (Recitativo: Don Alfonso) (01:01)
22. Che vita maledetta … Madame, ecco la vostra colazione (Recitativo: Despina, Fiordiligi, Dorabella) (01:08)
23. Ah, scostati! (Recitativo: Dorabella) (01:05)
24. Smanie implacabili che m‘agitate (No. 11, Aria: Dorabella) (01:43)
25. Signora Dorabella, signora Fiordiligi (Recitativo: Despina, Dorabella, Fiordiligi) (02:12)
26. In uomini, in soldati (No. 12, Aria: Despina) (02:34)
27. Che silenzio! Che aspetto di tristezza (Recitativo: Don Alfonso, Despina) (03:14)
28. Alla bella Despinetta (No. 13, Sestetto: Fiordiligi, Dorabella, Despina, Ferrando, Don Alfonso, Guglielmo) (04:18)
29. Che sussurro! Che strepito! (Recitativo: Don Alfonso, Dorabella, Fiordiligi, Ferrando, Guglielmo, Despina) (03:24)
30. Come scoglio immoto resta (No. 14, Aria: Fiordiligi) (03:58)
CD2
01. Ah, non partite! (Recitativo: Ferrando, Guglielmo, Don Alfonso, Dorabella, Fiordiligi) (01:03)
02. Non siate ritrosi (No. 15, Aria: Guglielmo) (01:45)
03. E voi ridete? (No. 16, Terzetto: Ferrando, Guglielmo, Don Alfonso) (00:46)
04. Si puo sapere un poco (Recitativo: Don Alfonso, Guglielmo, Ferrando) (01:03)
05. Un’aura amorosa (No. 17, Aria: Ferrando) (05:03)
06. Oh, la saria da ridere! (Recitativo: Don Alfonso, Despina) (02:21)
07. Ah, che tutta in un momento (Fiordiligi, Dorabella) (02:53)
08. Si mora, si, si mora (Ferrando, Don Alfonso, Guglielmo, Fiordiligi, Dorabella) (01:33)
09. Giacche a morir vicini (Don Alfonso, Fiordiligi, Dorabella, Despina, Ferrando, Guglielmo) (03:19)
10. Eccovi il medico (Don Alfonso, Ferrando, Guglielmo, Despina, Fiordiligi, Dorabella) (02:46)
11. Dove son? Che loco e questo? (Don Alfonso, Ferrando, Guglielmo, Despina, Fiordiligi, Dorabella) (03:57)
12. Dammi un bacio, o mio tesoro (Don Alfonso, Ferrando, Guglielmo, Despina, Fiordiligi, Dorabella) (03:05)
13. Andate la, che siete (Recitativo: Despina, Fiordiligi, Dorabella) (03:16)
14. Una donna a quindici anni (No. 19, Aria: Despina) (03:44)
15. Sorella, cosa dici? (Recitativo: Fiordiligi, Dorabella) (01:26)
16. Prendero quel brunettino (No. 20, Duetto: Fiordiligi, Dorabella) (03:02)
17. Ah, correte al giardino (Recitativo: Don Alfonso, Dorabella) (00:21)
18. Secondate, aurette amiche (No. 21, Duetto con Coro: Ferrando, Guglielmo) (03:29)
19. Il tutto deponete (Recitativo: Don Alfonso, Fiordiligi, Dorabella, Despina, Ferrando, Guglielmo) (00:47)
20. La mano a me date (No. 22: Despina, Ferrando, Guglielmo, Don Alfonso) (02:16)
21. Oh, che bella giornata! (Recitativo: Fiordiligi, Ferrando, Dorabella, Guglielmo) (02:39)
22. Il core vi dono (No. 23, Duetto: Dorabella, Guglielmo) (05:21)
23. Barbara, perche fuggi? (Recitativo: Ferrando, Fiordiligi) (01:37)
24. Ei parte! Senti... Ah no! Partir si lasci (Recitativo: Fiordiligi) (01:31)
25. Per pieta, ben mio, perdona (No. 25, Rondo: Fiordiligi) (07:48)
26. Amico, abbiamo vinto! (Recitativo: Ferrando, Guglielmo) (03:59)
27. Donne mie, la fate a tanti (No. 26, Aria: Guglielmo) (03:01)
28. In qual fiero contrasto (Recitativo: Ferrando) (01:26)
29. Tradito, schernito (No. 27, Cavatina: Ferrando) (02:03)
30. Bravo, questa e costanza! (Recitativo: Don Alfonso, Ferrando, Guglielmo) (01:29)
CD3
01. Ora vedo che siete (Recitativo: Despina, Dorabella, Fiordiligi) (02:26)
02. E amore un ladroncello (No. 28, Aria: Dorabella) (03:07)
03. Come tutto congiura (Recitativo: Fiordiligi, Guglielmo, Despina, Don Alfonso) (02:45)
04. Fra gli amplessi in pochi istanti (No. 29, Duetto: Fiordiligi, Ferrando) (06:00)
05. Ah, poveretto me, cosa ho veduto! (Recitativo: Guglielmo, Don Alfonso, Ferrando) (02:07)
06. Tutti accusan le donne (No. 30: Don Alfonso, Ferrando, Guglielmo) (01:01)
07. Vittoria, padroncini! (Recitativo: Despina, Ferrando, Don Alfonso, Guglielmo) (00:34)
08. Fate presto, o cari amici (Despina, Coro, Don Alfonso) (01:20)
09. Benedetti i doppi coniugi (Coro, Fiordiligi, Dorabella, Ferrando, Guglielmo) (03:49)
10. E nel tuo, nel mio bicchiero (Fiordiligi, Ferrando, Dorabella, Guglielmo) (02:06)
11. Miei signori, tutto e fatto (Don Alfonso, Fiordiligi, Dorabella, Ferrando, Guglielmo, Despina) (01:28)
12. Bella vita militar! (Coro, Fiordiligi, Dorabella, Despina, Ferrando, Guglielmo, Don Alfonso) (00:31)
13. Misericordia! Numi del cielo! (Don Alfonso, Fiordiligi, Dorabella, Ferrando, Guglielmo, Despina) (01:07)
14. Sani e salvi agli amplessi amorosi (Ferrando, Guglielmo, Don Alfonso, Fiordiligi, Dorabella, Despina) (02:57)
15. Giusto ciel! (Ferrando, Guglielmo, Don Alfonso, Fiordiligi, Dorabella, Despina) (04:47)
16. Fortunato l’uom che prende (Ferrando, Guglielmo, Don Alfonso, Fiordiligi, Dorabella, Despina) (01:38)

-

LOG EAC:CD1:

Exact Audio Copy V1.0 beta 4 from 7. December 2014
EAC extraction logfile from 5. March 2015, 12:32
Teodor Currentzis / Così Fan Tutte
Used drive : HL-DT-STDVD+-RW GH70N Adapter: 1 ID: 0
Read mode : SecureUtilize accurate stream : YesDefeat audio cache : YesMake use of C2 pointers : No
Read offset correction : 667Overread into Lead-In and Lead-Out : NoFill up missing offset samples with silence : YesDelete leading and trailing silent blocks : NoNull samples used in CRC calculations : YesUsed interface : Native Win32 interface for Win NT & 2000Gap handling : Appended to previous track
Used output format : User Defined EncoderSelected bitrate : 1024 kBit/sQuality : HighAdd ID3 tag : NoCommand line compressor : C:\Program Files (x86)\Exact Audio Copy\FLAC\FLAC.EXEAdditional command line options : -8 -V -T "ARTIST=%artist%" -T "TITLE=%title%" -T "ALBUM=%albumtitle%" -T "DATE=%year%" -T "TRACKNUMBER=%tracknr%" -T "GENRE=%genre%" -T "PERFORMER=%albuminterpret%" -T "COMPOSER=%composer%" %haslyrics%--tag-from-file=LYRICS="%lyricsfile%"%haslyrics% -T "ALBUMARTIST=%albumartist%" -T "DISCNUMBER=%cdnumber%" -T "TOTALDISCS=%totalcds%" -T "TOTALTRACKS=%numtracks%" -T "COMMENT=%comment%" %source% -o %dest%
TOC of the extracted CD
Track | Start | Length | Start sector | End sector --------------------------------------------------------- 1 | 0:00.00 | 3:52.55 | 0 | 17454 2 | 3:52.55 | 1:53.26 | 17455 | 25955 3 | 5:46.06 | 1:02.54 | 25956 | 30659 4 | 6:48.60 | 1:01.51 | 30660 | 35285 5 | 7:50.36 | 1:19.27 | 35286 | 41237 6 | 9:09.63 | 2:15.49 | 41238 | 51411 7 | 11:25.37 | 5:09.48 | 51412 | 74634 8 | 16:35.10 | 1:15.73 | 74635 | 80332 9 | 17:51.08 | 0:44.41 | 80333 | 83673 10 | 18:35.49 | 1:05.08 | 83674 | 88556 11 | 19:40.57 | 4:09.72 | 88557 | 107303 12 | 23:50.54 | 0:55.22 | 107304 | 111450 13 | 24:46.01 | 1:24.54 | 111451 | 117804 14 | 26:10.55 | 0:43.47 | 117805 | 121076 15 | 26:54.27 | 1:25.22 | 121077 | 127473 16 | 28:19.49 | 0:31.44 | 127474 | 129842 17 | 28:51.18 | 2:23.65 | 129843 | 140632 18 | 31:15.08 | 0:45.19 | 140633 | 144026 19 | 32:00.27 | 0:56.47 | 144027 | 148273 20 | 32:56.74 | 3:26.49 | 148274 | 163772 21 | 36:23.48 | 1:00.52 | 163773 | 168324 22 | 37:24.25 | 1:08.13 | 168325 | 173437 23 | 38:32.38 | 1:05.03 | 173438 | 178315 24 | 39:37.41 | 1:42.63 | 178316 | 186028 25 | 41:20.29 | 2:11.48 | 186029 | 195901 26 | 43:32.02 | 2:34.02 | 195902 | 207453 27 | 46:06.04 | 3:14.04 | 207454 | 222007 28 | 49:20.08 | 4:17.56 | 222008 | 241338 29 | 53:37.64 | 3:24.31 | 241339 | 256669 30 | 57:02.20 | 3:58.28 | 256670 | 274547
Track 1
Filename I:\EAC\1.01 - Ouvertura.wav
Pre-gap length 0:00:02.00
Peak level 86.8 % Extraction speed 1.6 X Track quality 99.9 % Test CRC 704219A1 Copy CRC 704219A1 Accurately ripped (confidence 5) [5B34BEDE] (AR v2) Copy OK
Track 2
Filename I:\EAC\1.02 - La mia Dorabella capace non è (No. 1, Terzetto- Ferrando, Don Alfonso, Guglielmo).wav
Pre-gap length 0:00:00.17
Peak level 71.2 % Extraction speed 1.7 X Track quality 100.0 % Test CRC FB03D6DF Copy CRC FB03D6DF Accurately ripped (confidence 5) [F9F3D355] (AR v2) Copy OK
Track 3
Filename I:\EAC\1.03 - Fuor la spada! (Recitativo- Guglielmo, Don Alfonso, Ferrando).wav
Peak level 37.2 % Extraction speed 1.0 X Track quality 99.8 % Test CRC 21B486A7 Copy CRC 21B486A7 Accurately ripped (confidence 5) [0E017013] (AR v2) Copy OK
Track 4
Filename I:\EAC\1.04 - È la fede delle femmine (No. 2, Terzetto- Ferrando, Don Alfonso, Guglielmo).wav
Peak level 71.9 % Extraction speed 1.4 X Track quality 100.0 % Test CRC CFB562B0 Copy CRC CFB562B0 Accurately ripped (confidence 5) [B2ACA0C2] (AR v2) Copy OK
Track 5
Filename I:\EAC\1.05 - Scioccherie di poeti! (Recitativo- Ferrando, Guglielmo, Don Alfonso).wav
Peak level 45.3 % Extraction speed 1.2 X Track quality 99.8 % Test CRC 64F43137 Copy CRC 64F43137 Accurately ripped (confidence 5) [52C609E1] (AR v2) Copy OK
Track 6
Filename I:\EAC\1.06 - Una bella serenata (No. 3, Terzetto- Ferrando, Don Alfonso, Guglielmo).wav
Peak level 89.1 % Extraction speed 2.0 X Track quality 100.0 % Test CRC A307B282 Copy CRC A307B282 Accurately ripped (confidence 5) [2078F797] (AR v2) Copy OK
Track 7
Filename I:\EAC\1.07 - Ah guarda, o sorella (No. 4, Duetto- Fiordiligi, Dorabella).wav
Peak level 68.8 % Extraction speed 2.5 X Track quality 100.0 % Test CRC 954C6CDA Copy CRC 954C6CDA Accurately ripped (confidence 5) [89CF7660] (AR v2) Copy OK
Track 8
Filename I:\EAC\1.08 - Mi par che stamattina (Recitativo- Fiordiligi, Dorabella, Don Alfonso).wav
Peak level 39.6 % Extraction speed 1.8 X Track quality 100.0 % Test CRC 91DF48A5 Copy CRC 91DF48A5 Accurately ripped (confidence 5) [805DE9EE] (AR v2) Copy OK
Track 9
Filename I:\EAC\1.09 - Vorrei dir, e cor non ho (No. 5, Aria- Don Alfonso).wav
Peak level 48.0 % Extraction speed 1.6 X Track quality 100.0 % Test CRC 8D2A6979 Copy CRC 8D2A6979 Accurately ripped (confidence 5) [E1AD52BC] (AR v2) Copy OK
Track 10
Filename I:\EAC\1.10 - Stelle! Per carità, signor Alfonso (Recitativo- Fiordiligi, Don Alfonso, Dorabella).wav
Peak level 49.3 % Extraction speed 1.9 X Track quality 100.0 % Test CRC 1ED348A9 Copy CRC 1ED348A9 Accurately ripped (confidence 5) [7936F1B9] (AR v2) Copy OK
Track 11
Filename I:\EAC\1.11 - Sento, oh Dio, che questo piede (No. 6, Quintetto- Fiordiligi, Dorabella, Ferrando, Guglielmo, Don Alfonso).wav
Peak level 67.4 % Extraction speed 2.4 X Track quality 99.9 % Test CRC 346D515A Copy CRC 346D515A Accurately ripped (confidence 5) [B501F3A5] (AR v2) Copy OK
Track 12
Filename I:\EAC\1.12 - Non piangere, idol mio! (Recitativo- Guglielmo, Ferrando, Don Alfonso, Fiordiligi, Dorabella).wav
Peak level 62.3 % Extraction speed 1.8 X Track quality 100.0 % Test CRC 572EA810 Copy CRC 572EA810 Accurately ripped (confidence 5) [6E5ADF14] (AR v2) Copy OK
Track 13
Filename I:\EAC\1.13 - Al fato dàn legge (No. 7, Duettino- Ferrando, Guglielmo).wav
Peak level 56.5 % Extraction speed 2.3 X Track quality 100.0 % Test CRC 090032F5 Copy CRC 090032F5 Accurately ripped (confidence 5) [459859CE] (AR v2) Copy OK
Track 14
Filename I:\EAC\1.14 - La commedia è graziosa (Recitativo- Don Alfonso, Ferrando, Fiordiligi, Dorabella).wav
Peak level 26.6 % Extraction speed 1.8 X Track quality 100.0 % Test CRC 03E194D6 Copy CRC 03E194D6 Accurately ripped (confidence 5) [B7B149F3] (AR v2) Copy OK
Track 15
Filename I:\EAC\1.15 - Bella vita militar! (No. 8, Coro).wav
Peak level 81.6 % Extraction speed 1.7 X Track quality 99.8 % Test CRC CE979DEE Copy CRC CE979DEE Accurately ripped (confidence 5) [799F750B] (AR v2) Copy OK
Track 16
Filename I:\EAC\1.16 - Non v’è più tempo, amici (Recitativo- Don Alfonso, Fiordiligi, Dorabella, Ferrando, Guglielmo).wav
Peak level 31.6 % Extraction speed 1.5 X Track quality 100.0 % Test CRC 607593F6 Copy CRC 607593F6 Accurately ripped (confidence 5) [104456CE] (AR v2) Copy OK
Track 17
Filename I:\EAC\1.17 - Di scrivermi ogni giorno (Recitativo- Fiordiligi, Dorabella, Ferrando, Guglielmo, Don Alfonso).wav
Peak level 55.7 % Extraction speed 2.8 X Track quality 100.0 % Test CRC BFDB72F7 Copy CRC BFDB72F7 Accurately ripped (confidence 4) [4254278A] (AR v2) Copy OK
Track 18
Filename I:\EAC\1.18 - Bella vita militar! (No. 9, Coro).wav
Peak level 84.7 % Extraction speed 1.9 X Track quality 100.0 % Test CRC 87F26941 Copy CRC 87F26941 Accurately ripped (confidence 5) [CE1332B6] (AR v2) Copy OK
Track 19
Filename I:\EAC\1.19 - Dove son - Son partiti (Recitativo- Dorabella, Don Alfonso, Fiordiligi).wav
Peak level 34.3 % Extraction speed 2.0 X Track quality 100.0 % Test CRC 645D2D45 Copy CRC 645D2D45 Accurately ripped (confidence 5) [6E469324] (AR v2) Copy OK
Track 20
Filename I:\EAC\1.20 - Soave sia il vento (No. 10, Terzettino- Fiordiligi, Dorabella, Don Alfonso).wav
Peak level 42.3 % Extraction speed 3.1 X Track quality 100.0 % Test CRC FBD27EBC Copy CRC FBD27EBC Accurately ripped (confidence 5) [08C68343] (AR v2) Copy OK
Track 21
Filename I:\EAC\1.21 - Non son cattivo comico! (Recitativo- Don Alfonso).wav
Peak level 64.2 % Extraction speed 2.1 X Track quality 100.0 % Test CRC 66C13442 Copy CRC 66C13442 Accurately ripped (confidence 5) [BDEF91C6] (AR v2) Copy OK
Track 22
Filename I:\EAC\1.22 - Che vita maledetta … Madame, ecco la vostra colazione (Recitativo- Despina, Fiordiligi, Dorabella).wav
Peak level 34.5 % Extraction speed 2.4 X Track quality 100.0 % Test CRC CC0BB67F Copy CRC CC0BB67F Accurately ripped (confidence 4) [45FF92CF] (AR v2) Copy OK
Track 23
Filename I:\EAC\1.23 - Ah, scostati! (Recitativo- Dorabella).wav
Peak level 66.0 % Extraction speed 1.7 X Track quality 99.8 % Test CRC 4DA4633A Copy CRC 4DA4633A Accurately ripped (confidence 5) [191D6771] (AR v2) Copy OK
Track 24
Filename I:\EAC\1.24 - Smanie implacabili che m‘agitate (No. 11, Aria- Dorabella).wav
Peak level 66.6 % Extraction speed 2.7 X Track quality 100.0 % Test CRC 18C126FE Copy CRC 18C126FE Accurately ripped (confidence 5) [D9B0E3D8] (AR v2) Copy OK
Track 25
Filename I:\EAC\1.25 - Signora Dorabella, signora Fiordiligi (Recitativo- Despina, Dorabella, Fiordiligi).wav
Peak level 46.6 % Extraction speed 3.0 X Track quality 100.0 % Test CRC C99A6ADF Copy CRC C99A6ADF Accurately ripped (confidence 5) [5EBCD5B5] (AR v2) Copy OK
Track 26
Filename I:\EAC\1.26 - In uomini, in soldati (No. 12, Aria- Despina).wav
Peak level 59.9 % Extraction speed 2.6 X Track quality 99.9 % Test CRC 6155AD8C Copy CRC 6155AD8C Accurately ripped (confidence 4) [7E005BD7] (AR v2) Copy OK
Track 27
Filename I:\EAC\1.27 - Che silenzio! Che aspetto di tristezza (Recitativo- Don Alfonso, Despina).wav
Peak level 33.9 % Extraction speed 3.3 X Track quality 100.0 % Test CRC ED8F4879 Copy CRC ED8F4879 Accurately ripped (confidence 5) [DAD2DCDE] (AR v2) Copy OK
Track 28
Filename I:\EAC\1.28 - Alla bella Despinetta (No. 13, Sestetto- Fiordiligi, Dorabella, Despina, Ferrando, Don Alfonso, Guglielmo).wav
Peak level 87.7 % Extraction speed 3.7 X Track quality 100.0 % Test CRC 3704C000 Copy CRC 3704C000 Accurately ripped (confidence 5) [C3180BFD] (AR v2) Copy OK
Track 29
Filename I:\EAC\1.29 - Che sussurro! Che strepito! (Recitativo- Don Alfonso, Dorabella, Fiordiligi, Ferrando, Guglielmo, Despina).wav
Peak level 61.5 % Extraction speed 3.5 X Track quality 100.0 % Test CRC EEE47108 Copy CRC EEE47108 Accurately ripped (confidence 5) [9FD5DC04] (AR v2) Copy OK
Track 30
Filename I:\EAC\1.30 - Come scoglio immoto resta (No. 14, Aria- Fiordiligi).wav
Peak level 81.5 % Extraction speed 3.4 X Track quality 99.9 % Test CRC A70A45AC Copy CRC A70A45AC Accurately ripped (confidence 5) [938AA4DA] (AR v2) Copy OK
All tracks accurately ripped
No errors occurred
End of status report
---- CUETools DB Plugin V2.1.4
[CTDB TOCID: 33ghCEnWJw8ptLFU_NESNMgZkpo-] foundSubmit result: 33ghCEnWJw8ptLFU_NESNMgZkpo- has been confirmedTrack | CTDB Status 1 | (2/2) Accurately ripped 2 | (2/2) Accurately ripped 3 | (2/2) Accurately ripped 4 | (2/2) Accurately ripped 5 | (2/2) Accurately ripped 6 | (2/2) Accurately ripped 7 | (2/2) Accurately ripped 8 | (2/2) Accurately ripped 9 | (2/2) Accurately ripped 10 | (2/2) Accurately ripped 11 | (2/2) Accurately ripped 12 | (2/2) Accurately ripped 13 | (2/2) Accurately ripped 14 | (2/2) Accurately ripped 15 | (2/2) Accurately ripped 16 | (2/2) Accurately ripped 17 | (2/2) Accurately ripped 18 | (2/2) Accurately ripped 19 | (2/2) Accurately ripped 20 | (2/2) Accurately ripped 21 | (2/2) Accurately ripped 22 | (2/2) Accurately ripped 23 | (2/2) Accurately ripped 24 | (2/2) Accurately ripped 25 | (2/2) Accurately ripped 26 | (2/2) Accurately ripped 27 | (2/2) Accurately ripped 28 | (2/2) Accurately ripped 29 | (2/2) Accurately ripped 30 | (2/2) Accurately ripped
==== Log checksum D3BA978B330DD26F0F6F119B1D9A2BF59C94C1D4B8B5D4D6CF7A26CE813B1E8C ====

CD2:

Exact Audio Copy V1.0 beta 4 from 7. December 2014
EAC extraction logfile from 5. March 2015, 16:04
Teodor Currentzis / Così Fan Tutte
Used drive : HL-DT-STBD-RE BH16NS40 Adapter: 1 ID: 0
Read mode : SecureUtilize accurate stream : YesDefeat audio cache : YesMake use of C2 pointers : No
Read offset correction : 6Overread into Lead-In and Lead-Out : NoFill up missing offset samples with silence : YesDelete leading and trailing silent blocks : NoNull samples used in CRC calculations : YesUsed interface : Native Win32 interface for Win NT & 2000Gap handling : Appended to previous track
Used output format : User Defined EncoderSelected bitrate : 1024 kBit/sQuality : HighAdd ID3 tag : NoCommand line compressor : F:\Program Files (x86)\Exact Audio Copy\FLAC\FLAC.EXEAdditional command line options : -8 -V -T "ARTIST=%artist%" -T "TITLE=%title%" -T "ALBUM=%albumtitle%" -T "DATE=%year%" -T "TRACKNUMBER=%tracknr%" -T "GENRE=%genre%" -T "PERFORMER=%albuminterpret%" -T "COMPOSER=%composer%" %haslyrics%--tag-from-file=LYRICS="%lyricsfile%"%haslyrics% -T "ALBUMARTIST=%albumartist%" -T "DISCNUMBER=%cdnumber%" -T "TOTALDISCS=%totalcds%" -T "TOTALTRACKS=%numtracks%" -T "COMMENT=%comment%" %source% -o %dest%
TOC of the extracted CD
Track | Start | Length | Start sector | End sector --------------------------------------------------------- 1 | 0:00.00 | 1:03.12 | 0 | 4736 2 | 1:03.12 | 1:44.47 | 4737 | 12583 3 | 2:47.59 | 0:46.31 | 12584 | 16064 4 | 3:34.15 | 1:03.17 | 16065 | 20806 5 | 4:37.32 | 5:03.29 | 20807 | 43560 6 | 9:40.61 | 2:21.32 | 43561 | 54167 7 | 12:02.18 | 2:53.27 | 54168 | 67169 8 | 14:55.45 | 1:33.22 | 67170 | 74166 9 | 16:28.67 | 3:19.05 | 74167 | 89096 10 | 19:47.72 | 2:46.28 | 89097 | 101574 11 | 22:34.25 | 3:57.30 | 101575 | 119379 12 | 26:31.55 | 3:04.45 | 119380 | 133224 13 | 29:36.25 | 3:16.28 | 133225 | 147952 14 | 32:52.53 | 3:43.61 | 147953 | 164738 15 | 36:36.39 | 1:26.31 | 164739 | 171219 16 | 38:02.70 | 3:01.67 | 171220 | 184861 17 | 41:04.62 | 0:21.15 | 184862 | 186451 18 | 41:26.02 | 3:29.19 | 186452 | 202145 19 | 44:55.21 | 0:46.57 | 202146 | 205652 20 | 45:42.03 | 2:15.70 | 205653 | 215847 21 | 47:57.73 | 2:38.43 | 215848 | 227740 22 | 50:36.41 | 5:21.24 | 227741 | 251839 23 | 55:57.65 | 1:36.65 | 251840 | 259104 24 | 57:34.55 | 1:30.57 | 259105 | 265911 25 | 59:05.37 | 7:47.56 | 265912 | 300992 26 | 66:53.18 | 3:59.18 | 300993 | 318935 27 | 70:52.36 | 3:01.25 | 318936 | 332535 28 | 73:53.61 | 1:26.21 | 332536 | 339006 29 | 75:20.07 | 2:02.38 | 339007 | 348194 30 | 77:22.45 | 1:28.58 | 348195 | 354852
Track 1
Filename E:\EAC\2.01 - Ah, non partite! (Recitativo- Ferrando, Guglielmo, Don Alfonso, Dorabella, Fiordiligi).wav
Pre-gap length 0:00:02.00
Peak level 36.3 % Extraction speed 0.8 X Track quality 100.0 % Test CRC 90C929BB Copy CRC 90C929BB Accurately ripped (confidence 4) [EF4A3847] (AR v2) Copy OK
Track 2
Filename E:\EAC\2.02 - Non siate ritrosi (No. 15, Aria- Guglielmo).wav
Peak level 68.1 % Extraction speed 1.0 X Track quality 100.0 % Test CRC 294D2BCB Copy CRC 294D2BCB Accurately ripped (confidence 4) [0C3BA339] (AR v2) Copy OK
Track 3
Filename E:\EAC\2.03 - E voi ridete (No. 16, Terzetto- Ferrando, Guglielmo, Don Alfonso).wav
Peak level 71.7 % Extraction speed 0.8 X Track quality 100.0 % Test CRC F04CB229 Copy CRC F04CB229 Accurately ripped (confidence 4) [CD0533A6] (AR v2) Copy OK
Track 4
Filename E:\EAC\2.04 - Si può sapere un poco (Recitativo- Don Alfonso, Guglielmo, Ferrando).wav
Peak level 44.6 % Extraction speed 0.9 X Track quality 100.0 % Test CRC 7F4F8CD3 Copy CRC 7F4F8CD3 Accurately ripped (confidence 4) [3E318511] (AR v2) Copy OK
Track 5
Filename E:\EAC\2.05 - Un’aura amorosa (No. 17, Aria- Ferrando).wav
Peak level 49.0 % Extraction speed 1.3 X Track quality 100.0 % Test CRC F7115A16 Copy CRC F7115A16 Accurately ripped (confidence 4) [1554E70B] (AR v2) Copy OK
Track 6
Filename E:\EAC\2.06 - Oh, la saria da ridere! (Recitativo- Don Alfonso, Despina).wav
Peak level 49.1 % Extraction speed 1.0 X Track quality 99.9 % Test CRC E92F107C Copy CRC E92F107C Accurately ripped (confidence 4) [C10D591A] (AR v2) Copy OK
Track 7
Filename E:\EAC\2.07 - Ah, che tutta in un momento (Fiordiligi, Dorabella).wav
Peak level 50.0 % Extraction speed 1.4 X Track quality 100.0 % Test CRC EEC44111 Copy CRC EEC44111 Accurately ripped (confidence 4) [7111E47F] (AR v2) Copy OK
Track 8
Filename E:\EAC\2.08 - Si mora, sì, si mora (Ferrando, Don Alfonso, Guglielmo, Fiordiligi, Dorabella).wav
Peak level 68.8 % Extraction speed 1.1 X Track quality 99.8 % Test CRC BBCBC8EB Copy CRC BBCBC8EB Accurately ripped (confidence 4) [0E13087B] (AR v2) Copy OK
Track 9
Filename E:\EAC\2.09 - Giacché a morir vicini (Don Alfonso, Fiordiligi, Dorabella, Despina, Ferrando, Guglielmo).wav
Peak level 69.3 % Extraction speed 1.5 X Track quality 100.0 % Test CRC F0328414 Copy CRC F0328414 Accurately ripped (confidence 4) [B879A70A] (AR v2) Copy OK
Track 10
Filename E:\EAC\2.10 - Eccovi il medico (Don Alfonso, Ferrando, Guglielmo, Despina, Fiordiligi, Dorabella).wav
Peak level 77.8 % Extraction speed 1.5 X Track quality 100.0 % Test CRC 770E73CB Copy CRC 770E73CB Accurately ripped (confidence 4) [DF07638C] (AR v2) Copy OK
Track 11
Filename E:\EAC\2.11 - Dove son Che loco è questo (Don Alfonso, Ferrando, Guglielmo, Despina, Fiordiligi, Dorabella).wav
Peak level 49.3 % Extraction speed 1.5 X Track quality 99.9 % Test CRC 5AAC74C1 Copy CRC 5AAC74C1 Accurately ripped (confidence 4) [38FEFBF0] (AR v2) Copy OK
Track 12
Filename E:\EAC\2.12 - Dammi un bacio, o mio tesoro (Don Alfonso, Ferrando, Guglielmo, Despina, Fiordiligi, Dorabella).wav
Peak level 83.8 % Extraction speed 1.4 X Track quality 99.9 % Test CRC 0D4EDA03 Copy CRC 0D4EDA03 Accurately ripped (confidence 4) [AC931011] (AR v2) Copy OK
Track 13
Filename E:\EAC\2.13 - Andate là, che siete (Recitativo- Despina, Fiordiligi, Dorabella).wav
Pre-gap length 0:00:00.56
Peak level 37.5 % Extraction speed 1.8 X Track quality 100.0 % Test CRC 396BA760 Copy CRC 396BA760 Accurately ripped (confidence 4) [72F6D946] (AR v2) Copy OK
Track 14
Filename E:\EAC\2.14 - Una donna a quindici anni (No. 19, Aria- Despina).wav
Peak level 61.9 % Extraction speed 1.9 X Track quality 100.0 % Test CRC AADE5F45 Copy CRC AADE5F45 Accurately ripped (confidence 4) [E16EFD05] (AR v2) Copy OK
Track 15
Filename E:\EAC\2.15 - Sorella, cosa dici (Recitativo- Fiordiligi, Dorabella).wav
Peak level 31.2 % Extraction speed 1.6 X Track quality 100.0 % Test CRC 77C81DB2 Copy CRC 77C81DB2 Accurately ripped (confidence 4) [F52117CB] (AR v2) Copy OK
Track 16
Filename E:\EAC\2.16 - Prenderò quel brunettino (No. 20, Duetto- Fiordiligi, Dorabella).wav
Peak level 59.5 % Extraction speed 1.6 X Track quality 99.9 % Test CRC 10F2A018 Copy CRC 10F2A018 Accurately ripped (confidence 4) [DD5C8A01] (AR v2) Copy OK
Track 17
Filename E:\EAC\2.17 - Ah, correte al giardino (Recitativo- Don Alfonso, Dorabella).wav
Peak level 30.1 % Extraction speed 0.4 X Track quality 99.4 % Test CRC BE96DFD5 Copy CRC BE96DFD5 Accurately ripped (confidence 4) [1074F5F0] (AR v2) Copy OK
Track 18
Filename E:\EAC\2.18 - Secondate, aurette amiche (No. 21, Duetto con Coro- Ferrando, Guglielmo).wav
Peak level 31.1 % Extraction speed 2.0 X Track quality 100.0 % Test CRC 9067A19C Copy CRC 9067A19C Accurately ripped (confidence 4) [2580A106] (AR v2) Copy OK
Track 19
Filename E:\EAC\2.19 - Il tutto deponete (Recitativo- Don Alfonso, Fiordiligi, Dorabella, Despina, Ferrando, Guglielmo).wav
Peak level 45.3 % Extraction speed 1.3 X Track quality 100.0 % Test CRC 27D8BDBC Copy CRC 27D8BDBC Accurately ripped (confidence 4) [AB61440A] (AR v2) Copy OK
Track 20
Filename E:\EAC\2.20 - La mano a me date (No. 22- Despina, Ferrando, Guglielmo, Don Alfonso).wav
Peak level 68.7 % Extraction speed 1.9 X Track quality 100.0 % Test CRC D8FB783B Copy CRC D8FB783B Accurately ripped (confidence 4) [6ABC3245] (AR v2) Copy OK
Track 21
Filename E:\EAC\2.21 - Oh, che bella giornata! (Recitativo- Fiordiligi, Ferrando, Dorabella, Guglielmo).wav
Peak level 45.1 % Extraction speed 2.0 X Track quality 100.0 % Test CRC 22CEB3FD Copy CRC 22CEB3FD Accurately ripped (confidence 4) [B5B0C7C3] (AR v2) Copy OK
Track 22
Filename E:\EAC\2.22 - Il core vi dono (No. 23, Duetto- Dorabella, Guglielmo).wav
Peak level 61.6 % Extraction speed 2.3 X Track quality 100.0 % Test CRC 77BE8CCE Copy CRC 77BE8CCE Accurately ripped (confidence 4) [8B5825B0] (AR v2) Copy OK
Track 23
Filename E:\EAC\2.23 - Barbara, perchè fuggi (Recitativo- Ferrando, Fiordiligi).wav
Peak level 63.4 % Extraction speed 1.9 X Track quality 100.0 % Test CRC 76EC133B Copy CRC 76EC133B Accurately ripped (confidence 4) [E41B191B] (AR v2) Copy OK
Track 24
Filename E:\EAC\2.24 - Ei parte! Senti... Ah no! Partir si lasci (Recitativo- Fiordiligi).wav
Peak level 62.1 % Extraction speed 1.8 X Track quality 100.0 % Test CRC 29D5BA5A Copy CRC 29D5BA5A Accurately ripped (confidence 4) [53BAE080] (AR v2) Copy OK
Track 25
Filename E:\EAC\2.25 - Per pietà, ben mio, perdona (No. 25, Rondò- Fiordiligi).wav
Peak level 70.3 % Extraction speed 2.3 X Track quality 99.9 % Test CRC E3E1EAFD Copy CRC E3E1EAFD Accurately ripped (confidence 4) [CCD03EB8] (AR v2) Copy OK
Track 26
Filename E:\EAC\2.26 - Amico, abbiamo vinto! (Recitativo- Ferrando, Guglielmo).wav
Peak level 70.3 % Extraction speed 2.4 X Track quality 100.0 % Test CRC 11C7CCDC Copy CRC 11C7CCDC Accurately ripped (confidence 4) [776B336F] (AR v2) Copy OK
Track 27
Filename E:\EAC\2.27 - Donne mie, la fate a tanti (No. 26, Aria- Guglielmo).wav
Peak level 74.7 % Extraction speed 2.3 X Track quality 100.0 % Test CRC 1F5DCAFE Copy CRC 1F5DCAFE Accurately ripped (confidence 4) [88A5B864] (AR v2) Copy OK
Track 28
Filename E:\EAC\2.28 - In qual fiero contrasto (Recitativo- Ferrando).wav
Peak level 57.7 % Extraction speed 2.0 X Track quality 100.0 % Test CRC 19D49026 Copy CRC 19D49026 Accurately ripped (confidence 4) [A2A637C5] (AR v2) Copy OK
Track 29
Filename E:\EAC\2.29 - Tradito, schernito (No. 27, Cavatina- Ferrando).wav
Pre-gap length 0:00:00.36
Peak level 58.4 % Extraction speed 1.7 X Track quality 99.9 % Test CRC DC5F41C2 Copy CRC DC5F41C2 Accurately ripped (confidence 4) [5BE80D61] (AR v2) Copy OK
Track 30
Filename E:\EAC\2.30 - Bravo, questa è costanza! (Recitativo- Don Alfonso, Ferrando, Guglielmo).wav
Peak level 65.8 % Extraction speed 2.0 X Track quality 100.0 % Test CRC ACDDE86B Copy CRC ACDDE86B Accurately ripped (confidence 4) [F9A849ED] (AR v2) Copy OK
All tracks accurately ripped
No errors occurred
End of status report
---- CUETools DB Plugin V2.1.4
[CTDB TOCID: n7kwIzdNBOkogrqV4tvIzIyex6E-] foundSubmit result: already submittedTrack | CTDB Status 1 | (3/3) Accurately ripped 2 | (3/3) Accurately ripped 3 | (3/3) Accurately ripped 4 | (3/3) Accurately ripped 5 | (3/3) Accurately ripped 6 | (3/3) Accurately ripped 7 | (3/3) Accurately ripped 8 | (3/3) Accurately ripped 9 | (3/3) Accurately ripped 10 | (3/3) Accurately ripped 11 | (3/3) Accurately ripped 12 | (3/3) Accurately ripped 13 | (3/3) Accurately ripped 14 | (3/3) Accurately ripped 15 | (3/3) Accurately ripped 16 | (3/3) Accurately ripped 17 | (3/3) Accurately ripped 18 | (3/3) Accurately ripped 19 | (3/3) Accurately ripped 20 | (3/3) Accurately ripped 21 | (3/3) Accurately ripped 22 | (3/3) Accurately ripped 23 | (3/3) Accurately ripped 24 | (3/3) Accurately ripped 25 | (3/3) Accurately ripped 26 | (3/3) Accurately ripped 27 | (3/3) Accurately ripped 28 | (3/3) Accurately ripped 29 | (3/3) Accurately ripped 30 | (3/3) Accurately ripped
==== Log checksum B7C964FABCA52B6B6AA24D3C41E0543B8DD16E65CB90749A3965B960BC56B910 ====

CD3:

Exact Audio Copy V1.0 beta 4 from 7. December 2014
EAC extraction logfile from 5. March 2015, 13:22
Teodor Currentzis / Così Fan Tutte
Used drive : HL-DT-STDVD+-RW GH70N Adapter: 1 ID: 0
Read mode : SecureUtilize accurate stream : YesDefeat audio cache : YesMake use of C2 pointers : No
Read offset correction : 667Overread into Lead-In and Lead-Out : NoFill up missing offset samples with silence : YesDelete leading and trailing silent blocks : NoNull samples used in CRC calculations : YesUsed interface : Native Win32 interface for Win NT & 2000Gap handling : Appended to previous track
Used output format : User Defined EncoderSelected bitrate : 1024 kBit/sQuality : HighAdd ID3 tag : NoCommand line compressor : C:\Program Files (x86)\Exact Audio Copy\FLAC\FLAC.EXEAdditional command line options : -8 -V -T "ARTIST=%artist%" -T "TITLE=%title%" -T "ALBUM=%albumtitle%" -T "DATE=%year%" -T "TRACKNUMBER=%tracknr%" -T "GENRE=%genre%" -T "PERFORMER=%albuminterpret%" -T "COMPOSER=%composer%" %haslyrics%--tag-from-file=LYRICS="%lyricsfile%"%haslyrics% -T "ALBUMARTIST=%albumartist%" -T "DISCNUMBER=%cdnumber%" -T "TOTALDISCS=%totalcds%" -T "TOTALTRACKS=%numtracks%" -T "COMMENT=%comment%" %source% -o %dest%
TOC of the extracted CD
Track | Start | Length | Start sector | End sector --------------------------------------------------------- 1 | 0:00.00 | 2:25.73 | 0 | 10947 2 | 2:25.73 | 3:07.32 | 10948 | 25004 3 | 5:33.30 | 2:45.14 | 25005 | 37393 4 | 8:18.44 | 5:59.45 | 37394 | 64363 5 | 14:18.14 | 2:06.69 | 64364 | 73882 6 | 16:25.08 | 1:00.45 | 73883 | 78427 7 | 17:25.53 | 0:33.57 | 78428 | 80959 8 | 17:59.35 | 1:19.45 | 80960 | 86929 9 | 19:19.05 | 3:49.33 | 86930 | 104137 10 | 23:08.38 | 2:05.50 | 104138 | 113562 11 | 25:14.13 | 1:28.37 | 113563 | 120199 12 | 26:42.50 | 0:30.62 | 120200 | 122511 13 | 27:13.37 | 1:07.19 | 122512 | 127555 14 | 28:20.56 | 2:57.34 | 127556 | 140864 15 | 31:18.15 | 4:46.63 | 140865 | 162377 16 | 36:05.03 | 1:37.61 | 162378 | 169713
Track 1
Filename I:\EAC\3.01 - Ora vedo che siete (Recitativo- Despina, Dorabella, Fiordiligi).wav
Pre-gap length 0:00:02.00
Peak level 35.7 % Extraction speed 1.6 X Track quality 100.0 % Test CRC 0CDBE005 Copy CRC 0CDBE005 Accurately ripped (confidence 4) [95D4D6EF] (AR v2) Copy OK
Track 2
Filename I:\EAC\3.02 - È amore un ladroncello (No. 28, Aria- Dorabella).wav
Peak level 70.9 % Extraction speed 1.8 X Track quality 100.0 % Test CRC 407640A2 Copy CRC 407640A2 Accurately ripped (confidence 4) [5E470275] (AR v2) Copy OK
Track 3
Filename I:\EAC\3.03 - Come tutto congiura (Recitativo- Fiordiligi, Guglielmo, Despina, Don Alfonso).wav
Peak level 30.3 % Extraction speed 1.9 X Track quality 100.0 % Test CRC D7B499C7 Copy CRC D7B499C7 Accurately ripped (confidence 4) [735FA57B] (AR v2) Copy OK
Track 4
Filename I:\EAC\3.04 - Fra gli amplessi in pochi istanti (No. 29, Duetto- Fiordiligi, Ferrando).wav
Peak level 78.1 % Extraction speed 2.4 X Track quality 100.0 % Test CRC 4DFF70C9 Copy CRC 4DFF70C9 Accurately ripped (confidence 4) [39BDFF6A] (AR v2) Copy OK
Track 5
Filename I:\EAC\3.05 - Ah, poveretto me, cosa ho veduto! (Recitativo- Guglielmo, Don Alfonso, Ferrando).wav
Peak level 58.0 % Extraction speed 2.2 X Track quality 100.0 % Test CRC 234BED44 Copy CRC 234BED44 Accurately ripped (confidence 4) [D4F47EBD] (AR v2) Copy OK
Track 6
Filename I:\EAC\3.06 - Tutti accusan le donne (No. 30- Don Alfonso, Ferrando, Guglielmo).wav
Peak level 73.3 % Extraction speed 1.6 X Track quality 100.0 % Test CRC 3414F834 Copy CRC 3414F834 Accurately ripped (confidence 4) [04E20A40] (AR v2) Copy OK
Track 7
Filename I:\EAC\3.07 - Vittoria, padroncini! (Recitativo- Despina, Ferrando, Don Alfonso, Guglielmo).wav
Peak level 45.0 % Extraction speed 1.2 X Track quality 100.0 % Test CRC F2AC91C1 Copy CRC F2AC91C1 Accurately ripped (confidence 4) [4EE99A17] (AR v2) Copy OK
Track 8
Filename I:\EAC\3.08 - Fate presto, o cari amici (Despina, Coro, Don Alfonso).wav
Peak level 79.4 % Extraction speed 1.9 X Track quality 100.0 % Test CRC AE3A5E7F Copy CRC AE3A5E7F Accurately ripped (confidence 4) [05F8B85C] (AR v2) Copy OK
Track 9
Filename I:\EAC\3.09 - Benedetti i doppi coniugi (Coro, Fiordiligi, Dorabella, Ferrando, Guglielmo).wav
Pre-gap length 0:00:00.20
Peak level 73.1 % Extraction speed 2.6 X Track quality 100.0 % Test CRC E09C9020 Copy CRC E09C9020 Accurately ripped (confidence 4) [6D8CE9A0] (AR v2) Copy OK
Track 10
Filename I:\EAC\3.10 - E nel tuo, nel mio bicchiero (Fiordiligi, Ferrando, Dorabella, Guglielmo).wav
Peak level 30.2 % Extraction speed 2.5 X Track quality 100.0 % Test CRC 211515C3 Copy CRC 211515C3 Accurately ripped (confidence 4) [C182DDE0] (AR v2) Copy OK
Track 11
Filename I:\EAC\3.11 - Miei signori, tutto è fatto (Don Alfonso, Fiordiligi, Dorabella, Ferrando, Guglielmo, Despina).wav
Peak level 72.5 % Extraction speed 2.2 X Track quality 100.0 % Test CRC C70DDD29 Copy CRC C70DDD29 Accurately ripped (confidence 4) [DA5DF27C] (AR v2) Copy OK
Track 12
Filename I:\EAC\3.12 - Bella vita militar! (Coro, Fiordiligi, Dorabella, Despina, Ferrando, Guglielmo, Don Alfonso).wav
Peak level 52.8 % Extraction speed 1.3 X Track quality 100.0 % Test CRC 1D8C2347 Copy CRC 1D8C2347 Accurately ripped (confidence 4) [1F6BDE38] (AR v2) Copy OK
Track 13
Filename I:\EAC\3.13 - Misericordia! Numi del cielo! (Don Alfonso, Fiordiligi, Dorabella, Ferrando, Guglielmo, Despina).wav
Peak level 75.5 % Extraction speed 2.0 X Track quality 100.0 % Test CRC FA133668 Copy CRC FA133668 Accurately ripped (confidence 4) [4A078854] (AR v2) Copy OK
Track 14
Filename I:\EAC\3.14 - Sani e salvi agli amplessi amorosi (Ferrando, Guglielmo, Don Alfonso, Fiordiligi, Dorabella, Despina).wav
Peak level 64.4 % Extraction speed 2.8 X Track quality 100.0 % Test CRC 0BF4789F Copy CRC 0BF4789F Accurately ripped (confidence 4) [7E81FBEF] (AR v2) Copy OK
Track 15
Filename I:\EAC\3.15 - Giusto ciel! (Ferrando, Guglielmo, Don Alfonso, Fiordiligi, Dorabella, Despina).wav
Peak level 84.0 % Extraction speed 2.8 X Track quality 99.9 % Test CRC 2C9DD33C Copy CRC 2C9DD33C Accurately ripped (confidence 4) [D42BEF56] (AR v2) Copy OK
Track 16
Filename I:\EAC\3.16 - Fortunato l’uom che prende (Ferrando, Guglielmo, Don Alfonso, Fiordiligi, Dorabella, Despina).wav
Peak level 75.7 % Extraction speed 2.7 X Track quality 100.0 % Test CRC 18F55FCA Copy CRC 18F55FCA Accurately ripped (confidence 4) [8B4E60CC] (AR v2) Copy OK
All tracks accurately ripped
No errors occurred
End of status report
---- CUETools DB Plugin V2.1.4
[CTDB TOCID: 7X9seTlOmo7_PIixgU1Wlz0EYL0-] foundSubmit result: 7X9seTlOmo7_PIixgU1Wlz0EYL0- has been confirmedTrack | CTDB Status 1 | (5/5) Accurately ripped 2 | (5/5) Accurately ripped 3 | (5/5) Accurately ripped 4 | (5/5) Accurately ripped 5 | (5/5) Accurately ripped 6 | (5/5) Accurately ripped 7 | (5/5) Accurately ripped 8 | (5/5) Accurately ripped 9 | (5/5) Accurately ripped 10 | (5/5) Accurately ripped 11 | (5/5) Accurately ripped 12 | (5/5) Accurately ripped 13 | (5/5) Accurately ripped 14 | (5/5) Accurately ripped 15 | (5/5) Accurately ripped 16 | (5/5) Accurately ripped
==== Log checksum C179AF7715B6B3D139E34FBE7BA6842135A5BC6C4DA6312190790BC91587A79E ====

LOG (.CUE):CD1:

REM GENRE ClassicalREM DATE 2014REM DISCID B80E4C1EREM COMMENT "ExactAudioCopy v1.0b4"CATALOG 8876546616232PERFORMER "Teodor Currentzis"TITLE "Cosм Fan Tutte"FILE "1.01 - Ouvertura.wav" WAVE TRACK 01 AUDIO TITLE "Ouvertura" PERFORMER "Teodor Currentzis" ISRC USSM11405464 INDEX 01 00:00:00 TRACK 02 AUDIO TITLE "La mia Dorabella capace non и (No. 1, Terzetto: Ferrando, Don Alfonso, Guglie..." PERFORMER "Teodor Currentzis" ISRC USSM11405466 INDEX 00 03:52:42FILE "1.02 - La mia Dorabella capace non и (No. 1, Terzetto- Ferrando, Don Alfonso, Guglielmo).wav" WAVE INDEX 01 00:00:00FILE "1.03 - Fuor la spada! (Recitativo- Guglielmo, Don Alfonso, Ferrando).wav" WAVE TRACK 03 AUDIO TITLE "Fuor la spada! (Recitativo: Guglielmo, Don Alfonso, Ferrando)" PERFORMER "Teodor Currentzis" ISRC USSM11405467 INDEX 01 00:00:00FILE "1.04 - И la fede delle femmine (No. 2, Terzetto- Ferrando, Don Alfonso, Guglielmo).wav" WAVE TRACK 04 AUDIO TITLE "И la fede delle femmine (No. 2, Terzetto: Ferrando, Don Alfonso, Guglielmo)" PERFORMER "Teodor Currentzis" ISRC USSM11405468 INDEX 01 00:00:00FILE "1.05 - Scioccherie di poeti! (Recitativo- Ferrando, Guglielmo, Don Alfonso).wav" WAVE TRACK 05 AUDIO TITLE "Scioccherie di poeti! (Recitativo: Ferrando, Guglielmo, Don Alfonso)" PERFORMER "Teodor Currentzis" ISRC USSM11405469 INDEX 01 00:00:00FILE "1.06 - Una bella serenata (No. 3, Terzetto- Ferrando, Don Alfonso, Guglielmo).wav" WAVE TRACK 06 AUDIO TITLE "Una bella serenata (No. 3, Terzetto: Ferrando, Don Alfonso, Guglielmo)" PERFORMER "Teodor Currentzis" ISRC USSM11405470 INDEX 01 00:00:00FILE "1.07 - Ah guarda, o sorella (No. 4, Duetto- Fiordiligi, Dorabella).wav" WAVE TRACK 07 AUDIO TITLE "Ah guarda, o sorella (No. 4, Duetto: Fiordiligi, Dorabella)" PERFORMER "Teodor Currentzis" ISRC USSM11405471 INDEX 01 00:00:00FILE "1.08 - Mi par che stamattina (Recitativo- Fiordiligi, Dorabella, Don Alfonso).wav" WAVE TRACK 08 AUDIO TITLE "Mi par che stamattina (Recitativo: Fiordiligi, Dorabella, Don Alfonso)" PERFORMER "Teodor Currentzis" ISRC USSM11405472 INDEX 01 00:00:00FILE "1.09 - Vorrei dir, e cor non ho (No. 5, Aria- Don Alfonso).wav" WAVE TRACK 09 AUDIO TITLE "Vorrei dir, e cor non ho (No. 5, Aria: Don Alfonso)" PERFORMER "Teodor Currentzis" ISRC USSM11405473 INDEX 01 00:00:00FILE "1.10 - Stelle! Per caritа, signor Alfonso (Recitativo- Fiordiligi, Don Alfonso, Dorabella).wav" WAVE TRACK 10 AUDIO TITLE "Stelle! Per caritа, signor Alfonso (Recitativo: Fiordiligi, Don Alfonso, Dora..." PERFORMER "Teodor Currentzis" ISRC USSM11405474 INDEX 01 00:00:00FILE "1.11 - Sento, oh Dio, che questo piede (No. 6, Quintetto- Fiordiligi, Dorabella, Ferrando, Guglielmo, Don Alfonso).wav" WAVE TRACK 11 AUDIO TITLE "Sento, oh Dio, che questo piede (No. 6, Quintetto: Fiordiligi, Dorabella, Fer..." PERFORMER "Teodor Currentzis" ISRC USSM11405475 INDEX 01 00:00:00FILE "1.12 - Non piangere, idol mio! (Recitativo- Guglielmo, Ferrando, Don Alfonso, Fiordiligi, Dorabella).wav" WAVE TRACK 12 AUDIO TITLE "Non piangere, idol mio! (Recitativo: Guglielmo, Ferrando, Don Alfonso, Fiordi..." PERFORMER "Teodor Currentzis" ISRC USSM11405476 INDEX 01 00:00:00FILE "1.13 - Al fato dаn legge (No. 7, Duettino- Ferrando, Guglielmo).wav" WAVE TRACK 13 AUDIO TITLE "Al fato dаn legge (No. 7, Duettino: Ferrando, Guglielmo)" PERFORMER "Teodor Currentzis" ISRC USSM11405477 INDEX 01 00:00:00FILE "1.14 - La commedia и graziosa (Recitativo- Don Alfonso, Ferrando, Fiordiligi, Dorabella).wav" WAVE TRACK 14 AUDIO TITLE "La commedia и graziosa (Recitativo: Don Alfonso, Ferrando, Fiordiligi, Dorabe..." PERFORMER "Teodor Currentzis" ISRC USSM11405478 INDEX 01 00:00:00FILE "1.15 - Bella vita militar! (No. 8, Coro).wav" WAVE TRACK 15 AUDIO TITLE "Bella vita militar! (No. 8, Coro)" PERFORMER "Teodor Currentzis" ISRC USSM11405479 INDEX 01 00:00:00FILE "1.16 - Non v’и piщ tempo, amici (Recitativo- Don Alfonso, Fiordiligi, Dorabella, Ferrando, Guglielmo).wav" WAVE TRACK 16 AUDIO TITLE "Non v’и piщ tempo, amici (Recitativo: Don Alfonso, Fiordiligi, Dorabella, Fer..." PERFORMER "Teodor Currentzis" ISRC USSM11405480 INDEX 01 00:00:00FILE "1.17 - Di scrivermi ogni giorno (Recitativo- Fiordiligi, Dorabella, Ferrando, Guglielmo, Don Alfonso).wav" WAVE TRACK 17 AUDIO TITLE "Di scrivermi ogni giorno (Recitativo: Fiordiligi, Dorabella, Ferrando, Guglie..." PERFORMER "Teodor Currentzis" ISRC USSM11405481 INDEX 01 00:00:00FILE "1.18 - Bella vita militar! (No. 9, Coro).wav" WAVE TRACK 18 AUDIO TITLE "Bella vita militar! (No. 9, Coro)" PERFORMER "Teodor Currentzis" ISRC USSM11405482 INDEX 01 00:00:00FILE "1.19 - Dove son - Son partiti (Recitativo- Dorabella, Don Alfonso, Fiordiligi).wav" WAVE TRACK 19 AUDIO TITLE "Dove son? - Son partiti (Recitativo: Dorabella, Don Alfonso, Fiordiligi)" PERFORMER "Teodor Currentzis" ISRC USSM11405483 INDEX 01 00:00:00FILE "1.20 - Soave sia il vento (No. 10, Terzettino- Fiordiligi, Dorabella, Don Alfonso).wav" WAVE TRACK 20 AUDIO TITLE "Soave sia il vento (No. 10, Terzettino: Fiordiligi, Dorabella, Don Alfonso)" PERFORMER "Teodor Currentzis" ISRC USSM11405484 INDEX 01 00:00:00FILE "1.21 - Non son cattivo comico! (Recitativo- Don Alfonso).wav" WAVE TRACK 21 AUDIO TITLE "Non son cattivo comico! (Recitativo: Don Alfonso)" PERFORMER "Teodor Currentzis" ISRC USSM11405485 INDEX 01 00:00:00FILE "1.22 - Che vita maledetta … Madame, ecco la vostra colazione (Recitativo- Despina, Fiordiligi, Dorabella).wav" WAVE TRACK 22 AUDIO TITLE "Che vita maledetta … Madame, ecco la vostra colazione (Recitativo: Despina, F..." PERFORMER "Teodor Currentzis" ISRC USSM11405486 INDEX 01 00:00:00FILE "1.23 - Ah, scostati! (Recitativo- Dorabella).wav" WAVE TRACK 23 AUDIO TITLE "Ah, scostati! (Recitativo: Dorabella)" PERFORMER "Teodor Currentzis" ISRC USSM11405487 INDEX 01 00:00:00FILE "1.24 - Smanie implacabili che m‘agitate (No. 11, Aria- Dorabella).wav" WAVE TRACK 24 AUDIO TITLE "Smanie implacabili che m‘agitate (No. 11, Aria: Dorabella)" PERFORMER "Teodor Currentzis" ISRC USSM11405488 INDEX 01 00:00:00FILE "1.25 - Signora Dorabella, signora Fiordiligi (Recitativo- Despina, Dorabella, Fiordiligi).wav" WAVE TRACK 25 AUDIO TITLE "Signora Dorabella, signora Fiordiligi (Recitativo: Despina, Dorabella, Fiordi..." PERFORMER "Teodor Currentzis" ISRC USSM11405489 INDEX 01 00:00:00FILE "1.26 - In uomini, in soldati (No. 12, Aria- Despina).wav" WAVE TRACK 26 AUDIO TITLE "In uomini, in soldati (No. 12, Aria: Despina)" PERFORMER "Teodor Currentzis" ISRC USSM11405490 INDEX 01 00:00:00FILE "1.27 - Che silenzio! Che aspetto di tristezza (Recitativo- Don Alfonso, Despina).wav" WAVE TRACK 27 AUDIO TITLE "Che silenzio! Che aspetto di tristezza (Recitativo: Don Alfonso, Despina)" PERFORMER "Teodor Currentzis" ISRC USSM11405491 INDEX 01 00:00:00FILE "1.28 - Alla bella Despinetta (No. 13, Sestetto- Fiordiligi, Dorabella, Despina, Ferrando, Don Alfonso, Guglielmo).wav" WAVE TRACK 28 AUDIO TITLE "Alla bella Despinetta (No. 13, Sestetto: Fiordiligi, Dorabella, Despina, Ferr..." PERFORMER "Teodor Currentzis" ISRC USSM11405492 INDEX 01 00:00:00FILE "1.29 - Che sussurro! Che strepito! (Recitativo- Don Alfonso, Dorabella, Fiordiligi, Ferrando, Guglielmo, Despina).wav" WAVE TRACK 29 AUDIO TITLE "Che sussurro! Che strepito! (Recitativo: Don Alfonso, Dorabella, Fiordiligi, ..." PERFORMER "Teodor Currentzis" ISRC USSM11405493 INDEX 01 00:00:00FILE "1.30 - Come scoglio immoto resta (No. 14, Aria- Fiordiligi).wav" WAVE TRACK 30 AUDIO TITLE "Come scoglio immoto resta (No. 14, Aria: Fiordiligi)" PERFORMER "Teodor Currentzis" ISRC USSM11405494 INDEX 01 00:00:00

CD2:

REM GENRE ClassicalREM DATE 2014REM DISCID FD127B1EREM COMMENT "ExactAudioCopy v1.0b4"PERFORMER "Teodor Currentzis"TITLE "Cosм Fan Tutte"FILE "2.01 - Ah, non partite! (Recitativo- Ferrando, Guglielmo, Don Alfonso, Dorabella, Fiordiligi).wav" WAVE TRACK 01 AUDIO TITLE "Ah, non partite! (Recitativo: Ferrando, Guglielmo, Don Alfonso, Dorabella, Fi..." PERFORMER "Teodor Currentzis" ISRC USSM11405495 INDEX 01 00:00:00FILE "2.02 - Non siate ritrosi (No. 15, Aria- Guglielmo).wav" WAVE TRACK 02 AUDIO TITLE "Non siate ritrosi (No. 15, Aria: Guglielmo)" PERFORMER "Teodor Currentzis" ISRC USSM11405496 INDEX 01 00:00:00FILE "2.03 - E voi ridete (No. 16, Terzetto- Ferrando, Guglielmo, Don Alfonso).wav" WAVE TRACK 03 AUDIO TITLE "E voi ridete? (No. 16, Terzetto: Ferrando, Guglielmo, Don Alfonso)" PERFORMER "Teodor Currentzis" ISRC USSM11405496 INDEX 01 00:00:00FILE "2.04 - Si puт sapere un poco (Recitativo- Don Alfonso, Guglielmo, Ferrando).wav" WAVE TRACK 04 AUDIO TITLE "Si puт sapere un poco (Recitativo: Don Alfonso, Guglielmo, Ferrando)" PERFORMER "Teodor Currentzis" ISRC USSM11405497 INDEX 01 00:00:00FILE "2.05 - Un’aura amorosa (No. 17, Aria- Ferrando).wav" WAVE TRACK 05 AUDIO TITLE "Un’aura amorosa (No. 17, Aria: Ferrando)" PERFORMER "Teodor Currentzis" ISRC USSM11405498 INDEX 01 00:00:00FILE "2.06 - Oh, la saria da ridere! (Recitativo- Don Alfonso, Despina).wav" WAVE TRACK 06 AUDIO TITLE "Oh, la saria da ridere! (Recitativo: Don Alfonso, Despina)" PERFORMER "Teodor Currentzis" ISRC USSM11405500 INDEX 01 00:00:00FILE "2.07 - Ah, che tutta in un momento (Fiordiligi, Dorabella).wav" WAVE TRACK 07 AUDIO TITLE "Ah, che tutta in un momento (Fiordiligi, Dorabella)" PERFORMER "Teodor Currentzis" ISRC USSM11405500 INDEX 01 00:00:00FILE "2.08 - Si mora, sм, si mora (Ferrando, Don Alfonso, Guglielmo, Fiordiligi, Dorabella).wav" WAVE TRACK 08 AUDIO TITLE "Si mora, sм, si mora (Ferrando, Don Alfonso, Guglielmo, Fiordiligi, Dorabella)" PERFORMER "Teodor Currentzis" ISRC USSM11405502 INDEX 01 00:00:00FILE "2.09 - Giacchй a morir vicini (Don Alfonso, Fiordiligi, Dorabella, Despina, Ferrando, Guglielmo).wav" WAVE TRACK 09 AUDIO TITLE "Giacchй a morir vicini (Don Alfonso, Fiordiligi, Dorabella, Despina, Ferrando..." PERFORMER "Teodor Currentzis" ISRC USSM11405502 INDEX 01 00:00:00FILE "2.10 - Eccovi il medico (Don Alfonso, Ferrando, Guglielmo, Despina, Fiordiligi, Dorabella).wav" WAVE TRACK 10 AUDIO TITLE "Eccovi il medico (Don Alfonso, Ferrando, Guglielmo, Despina, Fiordiligi, Dora..." PERFORMER "Teodor Currentzis" ISRC USSM11405503 INDEX 01 00:00:00FILE "2.11 - Dove son Che loco и questo (Don Alfonso, Ferrando, Guglielmo, Despina, Fiordiligi, Dorabella).wav" WAVE TRACK 11 AUDIO TITLE "Dove son? Che loco и questo? (Don Alfonso, Ferrando, Guglielmo, Despina, Fior..." PERFORMER "Teodor Currentzis" ISRC USSM11405505 INDEX 01 00:00:00FILE "2.12 - Dammi un bacio, o mio tesoro (Don Alfonso, Ferrando, Guglielmo, Despina, Fiordiligi, Dorabella).wav" WAVE TRACK 12 AUDIO TITLE "Dammi un bacio, o mio tesoro (Don Alfonso, Ferrando, Guglielmo, Despina, Fior..." PERFORMER "Teodor Currentzis" ISRC USSM11405505 INDEX 01 00:00:00 TRACK 13 AUDIO TITLE "Andate lа, che siete (Recitativo: Despina, Fiordiligi, Dorabella)" PERFORMER "Teodor Currentzis" ISRC USSM11405508 INDEX 00 03:04:03FILE "2.13 - Andate lа, che siete (Recitativo- Despina, Fiordiligi, Dorabella).wav" WAVE INDEX 01 00:00:00FILE "2.14 - Una donna a quindici anni (No. 19, Aria- Despina).wav" WAVE TRACK 14 AUDIO TITLE "Una donna a quindici anni (No. 19, Aria: Despina)" PERFORMER "Teodor Currentzis" ISRC USSM11405509 INDEX 01 00:00:00FILE "2.15 - Sorella, cosa dici (Recitativo- Fiordiligi, Dorabella).wav" WAVE TRACK 15 AUDIO TITLE "Sorella, cosa dici? (Recitativo: Fiordiligi, Dorabella)" PERFORMER "Teodor Currentzis" ISRC USSM11405510 INDEX 01 00:00:00FILE "2.16 - Prenderт quel brunettino (No. 20, Duetto- Fiordiligi, Dorabella).wav" WAVE TRACK 16 AUDIO TITLE "Prenderт quel brunettino (No. 20, Duetto: Fiordiligi, Dorabella)" PERFORMER "Teodor Currentzis" ISRC USSM11405510 INDEX 01 00:00:00FILE "2.17 - Ah, correte al giardino (Recitativo- Don Alfonso, Dorabella).wav" WAVE TRACK 17 AUDIO TITLE "Ah, correte al giardino (Recitativo: Don Alfonso, Dorabella)" PERFORMER "Teodor Currentzis" ISRC USSM11405512 INDEX 01 00:00:00FILE "2.18 - Secondate, aurette amiche (No. 21, Duetto con Coro- Ferrando, Guglielmo).wav" WAVE TRACK 18 AUDIO TITLE "Secondate, aurette amiche (No. 21, Duetto con Coro: Ferrando, Guglielmo)" PERFORMER "Teodor Currentzis" ISRC USSM11405512 INDEX 01 00:00:00FILE "2.19 - Il tutto deponete (Recitativo- Don Alfonso, Fiordiligi, Dorabella, Despina, Ferrando, Guglielmo).wav" WAVE TRACK 19 AUDIO TITLE "Il tutto deponete (Recitativo: Don Alfonso, Fiordiligi, Dorabella, Despina, F..." PERFORMER "Teodor Currentzis" ISRC USSM11405514 INDEX 01 00:00:00FILE "2.20 - La mano a me date (No. 22- Despina, Ferrando, Guglielmo, Don Alfonso).wav" WAVE TRACK 20 AUDIO TITLE "La mano a me date (No. 22: Despina, Ferrando, Guglielmo, Don Alfonso)" PERFORMER "Teodor Currentzis" ISRC USSM11405514 INDEX 01 00:00:00FILE "2.21 - Oh, che bella giornata! (Recitativo- Fiordiligi, Ferrando, Dorabella, Guglielmo).wav" WAVE TRACK 21 AUDIO TITLE "Oh, che bella giornata! (Recitativo: Fiordiligi, Ferrando, Dorabella, Guglielmo)" PERFORMER "Teodor Currentzis" ISRC USSM11405516 INDEX 01 00:00:00FILE "2.22 - Il core vi dono (No. 23, Duetto- Dorabella, Guglielmo).wav" WAVE TRACK 22 AUDIO TITLE "Il core vi dono (No. 23, Duetto: Dorabella, Guglielmo)" PERFORMER "Teodor Currentzis" ISRC USSM11405516 INDEX 01 00:00:00FILE "2.23 - Barbara, perchи fuggi (Recitativo- Ferrando, Fiordiligi).wav" WAVE TRACK 23 AUDIO TITLE "Barbara, perchи fuggi? (Recitativo: Ferrando, Fiordiligi)" PERFORMER "Teodor Currentzis" ISRC USSM11405517 INDEX 01 00:00:00FILE "2.24 - Ei parte! Senti... Ah no! Partir si lasci (Recitativo- Fiordiligi).wav" WAVE TRACK 24 AUDIO TITLE "Ei parte! Senti... Ah no! Partir si lasci (Recitativo: Fiordiligi)" PERFORMER "Teodor Currentzis" ISRC USSM11405518 INDEX 01 00:00:00FILE "2.25 - Per pietа, ben mio, perdona (No. 25, Rondт- Fiordiligi).wav" WAVE TRACK 25 AUDIO TITLE "Per pietа, ben mio, perdona (No. 25, Rondт: Fiordiligi)" PERFORMER "Teodor Currentzis" ISRC USSM11405520 INDEX 01 00:00:00FILE "2.26 - Amico, abbiamo vinto! (Recitativo- Ferrando, Guglielmo).wav" WAVE TRACK 26 AUDIO TITLE "Amico, abbiamo vinto! (Recitativo: Ferrando, Guglielmo)" PERFORMER "Teodor Currentzis" ISRC USSM11405520 INDEX 01 00:00:00FILE "2.27 - Donne mie, la fate a tanti (No. 26, Aria- Guglielmo).wav" WAVE TRACK 27 AUDIO TITLE "Donne mie, la fate a tanti (No. 26, Aria: Guglielmo)" PERFORMER "Teodor Currentzis" ISRC USSM11405522 INDEX 01 00:00:00FILE "2.28 - In qual fiero contrasto (Recitativo- Ferrando).wav" WAVE TRACK 28 AUDIO TITLE "In qual fiero contrasto (Recitativo: Ferrando)" PERFORMER "Teodor Currentzis" ISRC USSM11405522 INDEX 01 00:00:00 TRACK 29 AUDIO TITLE "Tradito, schernito (No. 27, Cavatina: Ferrando)" PERFORMER "Teodor Currentzis" ISRC USSM11405524 INDEX 00 01:25:69FILE "2.29 - Tradito, schernito (No. 27, Cavatina- Ferrando).wav" WAVE INDEX 01 00:00:00FILE "2.30 - Bravo, questa и costanza! (Recitativo- Don Alfonso, Ferrando, Guglielmo).wav" WAVE TRACK 30 AUDIO TITLE "Bravo, questa и costanza! (Recitativo: Don Alfonso, Ferrando, Guglielmo)" PERFORMER "Teodor Currentzis" ISRC USSM11405525 INDEX 01 00:00:00

CD3:

REM GENRE ClassicalREM DATE 2014REM DISCID C208D610REM COMMENT "ExactAudioCopy v1.0b4"PERFORMER "Teodor Currentzis"TITLE "Cosм Fan Tutte"FILE "3.01 - Ora vedo che siete (Recitativo- Despina, Dorabella, Fiordiligi).wav" WAVE TRACK 01 AUDIO TITLE "Ora vedo che siete (Recitativo: Despina, Dorabella, Fiordiligi)" PERFORMER "Teodor Currentzis" ISRC USSM11405526 INDEX 01 00:00:00FILE "3.02 - И amore un ladroncello (No. 28, Aria- Dorabella).wav" WAVE TRACK 02 AUDIO TITLE "И amore un ladroncello (No. 28, Aria: Dorabella)" PERFORMER "Teodor Currentzis" ISRC USSM11405527 INDEX 01 00:00:00FILE "3.03 - Come tutto congiura (Recitativo- Fiordiligi, Guglielmo, Despina, Don Alfonso).wav" WAVE TRACK 03 AUDIO TITLE "Come tutto congiura (Recitativo: Fiordiligi, Guglielmo, Despina, Don Alfonso)" PERFORMER "Teodor Currentzis" ISRC USSM11405528 INDEX 01 00:00:00FILE "3.04 - Fra gli amplessi in pochi istanti (No. 29, Duetto- Fiordiligi, Ferrando).wav" WAVE TRACK 04 AUDIO TITLE "Fra gli amplessi in pochi istanti (No. 29, Duetto: Fiordiligi, Ferrando)" PERFORMER "Teodor Currentzis" ISRC USSM11405529 INDEX 01 00:00:00FILE "3.05 - Ah, poveretto me, cosa ho veduto! (Recitativo- Guglielmo, Don Alfonso, Ferrando).wav" WAVE TRACK 05 AUDIO TITLE "Ah, poveretto me, cosa ho veduto! (Recitativo: Guglielmo, Don Alfonso, Ferrando)" PERFORMER "Teodor Currentzis" ISRC USSM11405530 INDEX 01 00:00:00FILE "3.06 - Tutti accusan le donne (No. 30- Don Alfonso, Ferrando, Guglielmo).wav" WAVE TRACK 06 AUDIO TITLE "Tutti accusan le donne (No. 30: Don Alfonso, Ferrando, Guglielmo)" PERFORMER "Teodor Currentzis" ISRC USSM11405531 INDEX 01 00:00:00FILE "3.07 - Vittoria, padroncini! (Recitativo- Despina, Ferrando, Don Alfonso, Guglielmo).wav" WAVE TRACK 07 AUDIO TITLE "Vittoria, padroncini! (Recitativo: Despina, Ferrando, Don Alfonso, Guglielmo)" PERFORMER "Teodor Currentzis" ISRC USSM11405532 INDEX 01 00:00:00FILE "3.08 - Fate presto, o cari amici (Despina, Coro, Don Alfonso).wav" WAVE TRACK 08 AUDIO TITLE "Fate presto, o cari amici (Despina, Coro, Don Alfonso)" PERFORMER "Teodor Currentzis" ISRC USSM11405533 INDEX 01 00:00:00 TRACK 09 AUDIO TITLE "Benedetti i doppi coniugi (Coro, Fiordiligi, Dorabella, Ferrando, Guglielmo)" PERFORMER "Teodor Currentzis" ISRC USSM11405534 INDEX 00 01:19:30FILE "3.09 - Benedetti i doppi coniugi (Coro, Fiordiligi, Dorabella, Ferrando, Guglielmo).wav" WAVE INDEX 01 00:00:00FILE "3.10 - E nel tuo, nel mio bicchiero (Fiordiligi, Ferrando, Dorabella, Guglielmo).wav" WAVE TRACK 10 AUDIO TITLE "E nel tuo, nel mio bicchiero (Fiordiligi, Ferrando, Dorabella, Guglielmo)" PERFORMER "Teodor Currentzis" ISRC USSM11405535 INDEX 01 00:00:00FILE "3.11 - Miei signori, tutto и fatto (Don Alfonso, Fiordiligi, Dorabella, Ferrando, Guglielmo, Despina).wav" WAVE TRACK 11 AUDIO TITLE "Miei signori, tutto и fatto (Don Alfonso, Fiordiligi, Dorabella, Ferrando, Gu..." PERFORMER "Teodor Currentzis" ISRC USSM11405536 INDEX 01 00:00:00FILE "3.12 - Bella vita militar! (Coro, Fiordiligi, Dorabella, Despina, Ferrando, Guglielmo, Don Alfonso).wav" WAVE TRACK 12 AUDIO TITLE "Bella vita militar! (Coro, Fiordiligi, Dorabella, Despina, Ferrando, Guglielm..." PERFORMER "Teodor Currentzis" ISRC USSM11405537 INDEX 01 00:00:00FILE "3.13 - Misericordia! Numi del cielo! (Don Alfonso, Fiordiligi, Dorabella, Ferrando, Guglielmo, Despina).wav" WAVE TRACK 13 AUDIO TITLE "Misericordia! Numi del cielo! (Don Alfonso, Fiordiligi, Dorabella, Ferrando, ..." PERFORMER "Teodor Currentzis" ISRC USSM11405538 INDEX 01 00:00:00FILE "3.14 - Sani e salvi agli amplessi amorosi (Ferrando, Guglielmo, Don Alfonso, Fiordiligi, Dorabella, Despina).wav" WAVE TRACK 14 AUDIO TITLE "Sani e salvi agli amplessi amorosi (Ferrando, Guglielmo, Don Alfonso, Fiordil..." PERFORMER "Teodor Currentzis" ISRC USSM11405539 INDEX 01 00:00:00FILE "3.15 - Giusto ciel! (Ferrando, Guglielmo, Don Alfonso, Fiordiligi, Dorabella, Despina).wav" WAVE TRACK 15 AUDIO TITLE "Giusto ciel! (Ferrando, Guglielmo, Don Alfonso, Fiordiligi, Dorabella, Despina)" PERFORMER "Teodor Currentzis" ISRC USSM11405540 INDEX 01 00:00:00FILE "3.16 - Fortunato l’uom che prende (Ferrando, Guglielmo, Don Alfonso, Fiordiligi, Dorabella, Despina).wav" WAVE TRACK 16 AUDIO TITLE "Fortunato l’uom che prende (Ferrando, Guglielmo, Don Alfonso, Fiordiligi, Dor..." PERFORMER "Teodor Currentzis" ISRC USSM11405541 INDEX 01 00:00:00



Показать сообщения:    

Текущее время: 05-Дек 03:30

Часовой пояс: UTC + 3


Вы не можете начинать темы
Вы не можете отвечать на сообщения
Вы не можете редактировать свои сообщения
Вы не можете удалять свои сообщения
Вы не можете голосовать в опросах
Вы не можете прикреплять файлы к сообщениям
Вы не можете скачивать файлы