(Classical) Thomas Larcher - What Becomes; Smart Dust; Poems; A Padmore Cycle - Tamara Stefanovich, Mark Padmore, Thomas Larcher - 2014, FLAC (image+.cue) lossless


 

[Цитировать]

Thomas Larcher - What Becomes; Smart Dust; Poems; A Padmore Cycle - Tamara Stefanovich, Mark Padmore, Thomas Larcher
Жанр: Classical
Страна-производитель диска: USA
Год издания диска: 2014
Издатель (лейбл): Harmonia Mundi
Номер по каталогу: HMU 907604
Дата записи: 2012
Аудиокодек: FLAC
Тип рипа: image+.cue
Битрейт аудио: lossless
Продолжительность: 73:21
Источник: собственный рип
Наличие сканов в содержимом раздачи: да
Треклист:
Thomas Larcher (b. 1963)
[1]-[2] Smart Dust (2005)
[3]-[14] Poems (1975–2010)
12 pieces for pianists & other children
[15]-[21] What Becomes (2009)
[22]-[32] A Padmore Cycle (2010–2011)
on poems by Hans Aschenwald & Alois Hotschnig
Исполнители:
Tamara Stefanovich piano [1]–[21]
Mark Padmore tenor [22]–[32]
Thomas Larcher piano [22]–[32]

Лог создания рипа

Exact Audio Copy V1.0 beta 3 from 29. August 2011
EAC extraction logfile from 1. May 2015, 18:13
Tamara Stefanovich, Mark Padmore, Thomas Larcher / Larcher - What Becomes
Used drive : HL-DT-STDVDRAM GU70N Adapter: 0 ID: 0
Read mode : SecureUtilize accurate stream : YesDefeat audio cache : YesMake use of C2 pointers : No
Read offset correction : 48Overread into Lead-In and Lead-Out : NoFill up missing offset samples with silence : YesDelete leading and trailing silent blocks : NoNull samples used in CRC calculations : YesUsed interface : Native Win32 interface for Win NT & 2000
Used output format : User Defined EncoderSelected bitrate : 128 kBit/sQuality : HighAdd ID3 tag : NoCommand line compressor : C:\Program Files (x86)\Exact Audio Copy\Flac\flac.exeAdditional command line options : -V -8 -T "Date=%year%" -T "Genre=%genre%" %source%
TOC of the extracted CD
Track | Start | Length | Start sector | End sector --------------------------------------------------------- 1 | 0:00.00 | 6:11.66 | 0 | 27890 2 | 6:11.66 | 3:41.02 | 27891 | 44467 3 | 9:52.68 | 2:02.04 | 44468 | 53621 4 | 11:54.72 | 1:36.01 | 53622 | 60822 5 | 13:30.73 | 1:03.16 | 60823 | 65563 6 | 14:34.14 | 0:42.11 | 65564 | 68724 7 | 15:16.25 | 0:49.07 | 68725 | 72406 8 | 16:05.32 | 1:12.05 | 72407 | 77811 9 | 17:17.37 | 1:11.63 | 77812 | 83199 10 | 18:29.25 | 1:07.61 | 83200 | 88285 11 | 19:37.11 | 2:45.12 | 88286 | 100672 12 | 22:22.23 | 0:55.71 | 100673 | 104868 13 | 23:18.19 | 2:12.16 | 104869 | 114784 14 | 25:30.35 | 3:01.33 | 114785 | 128392 15 | 28:31.68 | 3:20.32 | 128393 | 143424 16 | 31:52.25 | 3:48.62 | 143425 | 160586 17 | 35:41.12 | 2:19.12 | 160587 | 171023 18 | 38:00.24 | 2:05.02 | 171024 | 180400 19 | 40:05.26 | 4:09.73 | 180401 | 199148 20 | 44:15.24 | 1:12.52 | 199149 | 204600 21 | 45:28.01 | 3:13.16 | 204601 | 219091 22 | 48:41.17 | 0:07.72 | 219092 | 219688 23 | 48:49.14 | 3:30.12 | 219689 | 235450 24 | 52:19.26 | 2:10.15 | 235451 | 245215 25 | 54:29.41 | 3:11.30 | 245216 | 259570 26 | 57:40.71 | 0:20.40 | 259571 | 261110 27 | 58:01.36 | 1:44.52 | 261111 | 268962 28 | 59:46.13 | 4:02.40 | 268963 | 287152 29 | 63:48.53 | 1:44.71 | 287153 | 295023 30 | 65:33.49 | 2:26.20 | 295024 | 305993 31 | 67:59.69 | 1:55.56 | 305994 | 314674 32 | 69:55.50 | 3:23.43 | 314675 | 329942
Range status and errors
Selected range
Filename C:\temp\HMU907604 - Larcher - What Becomes (Stefanovich, Padmore, Larcher - HARMONIA MUNDI)\Larcher - What Becomes.wav
Peak level 97.2 % Extraction speed 2.3 X Range quality 100.0 % Test CRC DA78675E Copy CRC DA78675E Copy OK
No errors occurred
AccurateRip summary
Track 1 not present in databaseTrack 2 not present in databaseTrack 3 not present in databaseTrack 4 not present in databaseTrack 5 not present in databaseTrack 6 not present in databaseTrack 7 not present in databaseTrack 8 not present in databaseTrack 9 not present in databaseTrack 10 not present in databaseTrack 11 not present in databaseTrack 12 not present in databaseTrack 13 not present in databaseTrack 14 not present in databaseTrack 15 not present in databaseTrack 16 not present in databaseTrack 17 not present in databaseTrack 18 not present in databaseTrack 19 not present in databaseTrack 20 not present in databaseTrack 21 not present in databaseTrack 22 not present in databaseTrack 23 not present in databaseTrack 24 not present in databaseTrack 25 not present in databaseTrack 26 not present in databaseTrack 27 not present in databaseTrack 28 not present in databaseTrack 29 not present in databaseTrack 30 not present in databaseTrack 31 not present in databaseTrack 32 not present in database
None of the tracks are present in the AccurateRip database
End of status report
==== Log checksum 861CB6B02DF47220373039835404A1D82B64D5CE4C6B4E79DA3511CE01CAE552 ====



Показать сообщения:    

Текущее время: 09-Дек 20:31

Часовой пояс: UTC + 3


Вы не можете начинать темы
Вы не можете отвечать на сообщения
Вы не можете редактировать свои сообщения
Вы не можете удалять свои сообщения
Вы не можете голосовать в опросах
Вы не можете прикреплять файлы к сообщениям
Вы не можете скачивать файлы