(Soundtrack) Щепка / Sliver - 1993, FLAC (tracks+.cue), lossless


Статистика раздачи [Обновить пиров]
Размер:  364 MB   |    Зарегистрирован:  10 месяцев 17 дней   |    Скачан:  0 раз

Полного источника не было: Никогда

Личеров:  1  [  0 KB/s  ]   Подробная статистика пиров
 
   
 
 
 

[Цитировать]

Щепка / Sliver
Жанр: Soundtrack
Год выпуска диска: 1993
Аудиокодек: FLAC (*.flac)
Тип рипа: tracks+.cue
Битрейт аудио: lossless
Продолжительность: 55:41
Источник: скачано с
сайт-источник/ник/другое: what.cd
Наличие сканов в содержимом раздачи: нет
Треклист:
01. UB40 - Can't Help Falling In Love With You (3:26)
02. Enigma - Carly's Song (3:49)
03. Fluke - Slid (3:46)
04. Massive Attack - Unfinished Sympathy (5:09)
05. Lords Of Acid - The Most Wonderful Girl (4:47)
06. Shaggy - Oh Carolina (3:06)
07. Nenah Cherry - Move With Me (5:21)
08. Aftershock - Slave To The Vibe (5:45)
09. Heaven 17 - Penthouse And Pavement (3:58)
10. The Young Gods - Skinflowers (5:08)
11. Verve - Star Sail (3:58)
12. BiGOD 20 - Wild At Heart (4:15)
13. Enigma - Carly's Loneliness (3:11)

Лог создания рипа

Exact Audio Copy V1.0 beta 3 from 29. August 2011
EAC extraction logfile from 5. October 2012, 18:00
Various / Sliver
Used drive : HL-DT-STDVD-ROM GDR8164B Adapter: 0 ID: 1
Read mode : SecureUtilize accurate stream : YesDefeat audio cache : YesMake use of C2 pointers : No
Read offset correction : 102Overread into Lead-In and Lead-Out : NoFill up missing offset samples with silence : YesDelete leading and trailing silent blocks : NoNull samples used in CRC calculations : YesUsed interface : Native Win32 interface for Win NT & 2000Gap handling : Appended to previous track
Used output format : User Defined EncoderSelected bitrate : 1024 kBit/sQuality : HighAdd ID3 tag : NoCommand line compressor : C:\Program Files\Exact Audio Copy\FLAC\FLAC.EXEAdditional command line options : -8 -V -T "ARTIST=%artist%" -T "TITLE=%title%" -T "ALBUM=%albumtitle%" -T "DATE=%year%" -T "TRACKNUMBER=%tracknr%" -T "GENRE=%genre%" -T "PERFORMER=%albuminterpret%" -T "COMPOSER=%composer%" %haslyrics%--tag-from-file=LYRICS="%lyricsfile%"%haslyrics% -T "ALBUMARTIST=%albumartist%" -T "DISCNUMBER=%cdnumber%" -T "TOTALDISCS=%totalcds%" -T "TOTALTRACKS=%numtracks%" -T "COMMENT=%comment%" %source% -o %dest%
TOC of the extracted CD
Track | Start | Length | Start sector | End sector --------------------------------------------------------- 1 | 0:00.00 | 3:26.00 | 0 | 15449 2 | 3:26.00 | 3:49.00 | 15450 | 32624 3 | 7:15.00 | 3:46.02 | 32625 | 49576 4 | 11:01.02 | 5:09.25 | 49577 | 72776 5 | 16:10.27 | 4:47.33 | 72777 | 94334 6 | 20:57.60 | 3:06.35 | 94335 | 108319 7 | 24:04.20 | 5:20.52 | 108320 | 132371 8 | 29:24.72 | 5:45.18 | 132372 | 158264 9 | 35:10.15 | 3:58.07 | 158265 | 176121 10 | 39:08.22 | 5:08.23 | 176122 | 199244 11 | 44:16.45 | 3:58.17 | 199245 | 217111 12 | 48:14.62 | 4:15.03 | 217112 | 236239 13 | 52:29.65 | 3:11.20 | 236240 | 250584
Track 1
Filename E:\EAC\01 Can't Help Falling In Love With You.wav
Pre-gap length 0:00:02.00
Peak level 94.6 % Extraction speed 5.0 X Track quality 100.0 % Test CRC C6423FE5 Copy CRC C6423FE5 Accurately ripped (confidence 8) [18C7E209] (AR v2) Copy OK
Track 2
Filename E:\EAC\02 Carly's Song.wav
Pre-gap length 0:00:02.00
Peak level 89.5 % Extraction speed 5.4 X Track quality 100.0 % Test CRC 6679AF65 Copy CRC 6679AF65 Accurately ripped (confidence 8) [A9FF2703] (AR v2) Copy OK
Track 3
Filename E:\EAC\03 Slid.wav
Pre-gap length 0:00:02.20
Peak level 86.9 % Extraction speed 6.1 X Track quality 100.0 % Test CRC 31A37162 Copy CRC 31A37162 Accurately ripped (confidence 8) [F2324468] (AR v2) Copy OK
Track 4
Filename E:\EAC\04 Unfinished Sympathy.wav
Pre-gap length 0:00:01.60
Peak level 84.2 % Extraction speed 6.7 X Track quality 100.0 % Test CRC B61ADAC2 Copy CRC B61ADAC2 Accurately ripped (confidence 8) [C37AB740] (AR v2) Copy OK
Track 5
Filename E:\EAC\05 The Most Wonderful Girl.wav
Pre-gap length 0:00:01.40
Peak level 89.5 % Extraction speed 7.3 X Track quality 100.0 % Test CRC 8E650349 Copy CRC 8E650349 Accurately ripped (confidence 8) [3C4680E0] (AR v2) Copy OK
Track 6
Filename E:\EAC\06 Oh Carolina.wav
Pre-gap length 0:00:01.60
Peak level 95.8 % Extraction speed 7.2 X Track quality 100.0 % Test CRC 621697B9 Copy CRC 621697B9 Accurately ripped (confidence 8) [A98EBD84] (AR v2) Copy OK
Track 7
Filename E:\EAC\07 Move With Me.wav
Pre-gap length 0:00:01.53
Peak level 97.2 % Extraction speed 6.8 X Track quality 99.9 % Test CRC 3CE14BC7 Copy CRC 3CE14BC7 Accurately ripped (confidence 8) [53497C58] (AR v2) Copy OK
Track 8
Filename E:\EAC\08 Slave To The Vibe.wav
Pre-gap length 0:00:01.16
Peak level 92.0 % Extraction speed 8.6 X Track quality 100.0 % Test CRC B1A33B81 Copy CRC B1A33B81 Accurately ripped (confidence 8) [72DB20B5] (AR v2) Copy OK
Track 9
Filename E:\EAC\09 Penthouse And Pavement.wav
Pre-gap length 0:00:01.00
Peak level 97.2 % Extraction speed 8.6 X Track quality 100.0 % Test CRC B2D43F22 Copy CRC B2D43F22 Accurately ripped (confidence 8) [2F8F591E] (AR v2) Copy OK
Track 10
Filename E:\EAC\10 Skinflowers.wav
Pre-gap length 0:00:01.20
Peak level 91.4 % Extraction speed 9.2 X Track quality 100.0 % Test CRC 5CCFF4AB Copy CRC 5CCFF4AB Accurately ripped (confidence 8) [DFF429CB] (AR v2) Copy OK
Track 11
Filename E:\EAC\11 Star Sail.wav
Pre-gap length 0:00:01.06
Peak level 97.2 % Extraction speed 9.1 X Track quality 100.0 % Test CRC 641AF4E6 Copy CRC 641AF4E6 Accurately ripped (confidence 7) [05BF9EAD] (AR v2) Copy OK
Track 12
Filename E:\EAC\12 Wild At Heart.wav
Pre-gap length 0:00:01.13
Peak level 94.6 % Extraction speed 9.6 X Track quality 100.0 % Test CRC 680C69DD Copy CRC 680C69DD Accurately ripped (confidence 8) [7EF388FC] (AR v2) Copy OK
Track 13
Filename E:\EAC\13 Carly's Loneliness.wav
Pre-gap length 0:00:01.33
Peak level 95.5 % Extraction speed 6.8 X Track quality 99.8 % Test CRC CE807F3E Copy CRC CE807F3E Accurately ripped (confidence 8) [96DBC826] (AR v2) Copy OK
All tracks accurately ripped
No errors occurred
End of status report
---- CUETools DB Plugin V2.1.3
[CTDB TOCID: _eTzKUtqBYtrCIiRU20suq1q468-] found, Submit result: _eTzKUtqBYtrCIiRU20suq1q468- has been confirmed[9ac7f1c9] (7/7) Accurately ripped
==== Log checksum 0F520261DBEA5AE917F8238E77E5764F62198012B44A91D04E9658355B304E2E ====

Содержание индексной карты (.CUE)

REM GENRE SoundtrackREM DATE 1993REM COMMENTPERFORMER "Various"TITLE "Sliver"FILE "01 Can't Help Falling In Love With You.flac" WAVE TRACK 01 AUDIO TITLE "Can't Help Falling In Love With You" PERFORMER "UB40" INDEX 01 00:00:00FILE "02 Carly's Song.flac" WAVE TRACK 02 AUDIO TITLE "Carly's Song" PERFORMER "Enigma" INDEX 01 00:00:00FILE "03 Slid.flac" WAVE TRACK 03 AUDIO TITLE "Slid" PERFORMER "Fluke" INDEX 01 00:00:00FILE "04 Unfinished Sympathy.flac" WAVE TRACK 04 AUDIO TITLE "Unfinished Sympathy" PERFORMER "Massive Attack" INDEX 01 00:00:00FILE "05 The Most Wonderful Girl.flac" WAVE TRACK 05 AUDIO TITLE "The Most Wonderful Girl" PERFORMER "Lords Of Acid" INDEX 01 00:00:00FILE "06 Oh Carolina.flac" WAVE TRACK 06 AUDIO TITLE "Oh Carolina" PERFORMER "Shaggy" INDEX 01 00:00:00FILE "07 Move With Me.flac" WAVE TRACK 07 AUDIO TITLE "Move With Me" PERFORMER "Nenah Cherry" INDEX 01 00:00:00FILE "08 Slave To The Vibe.flac" WAVE TRACK 08 AUDIO TITLE "Slave To The Vibe" PERFORMER "Aftershock" INDEX 01 00:00:00FILE "09 Penthouse And Pavement.flac" WAVE TRACK 09 AUDIO TITLE "Penthouse And Pavement" PERFORMER "Heaven 17" INDEX 01 00:00:00FILE "10 Skinflowers.flac" WAVE TRACK 10 AUDIO TITLE "Skinflowers" PERFORMER "The Young Gods" INDEX 01 00:00:00FILE "11 Star Sail.flac" WAVE TRACK 11 AUDIO TITLE "Star Sail" PERFORMER "Verve" INDEX 01 00:00:00FILE "12 Wild At Heart.flac" WAVE TRACK 12 AUDIO TITLE "Wild At Heart" PERFORMER "BiGOD 20" INDEX 01 00:00:00FILE "13 Carly's Loneliness.flac" WAVE TRACK 13 AUDIO TITLE "Carly's Loneliness" PERFORMER "Enigma" INDEX 01 00:00:00

Лог проверки качества

-----------------------
DON'T MODIFY THIS FILE
-----------------------
PERFORMER: auCDtect Task Manager, ver. 1.6.0 RC1 build 1.6.0.1Copyright (c) 2008-2010 y-soft. All rights reservedhttp://y-soft.org
ANALYZER: auCDtect: CD records authenticity detector, version 0.8.2Copyright (c) 2004 Oleg Berngardt. All rights reserved.Copyright (c) 2004 Alexander Djourik. All rights reserved.
FILE: 13 Carly's Loneliness.flac Size: 18837248 Hash: 1FCD8BEB0EB6D6A5FDBEBF53892EDCD8 Accuracy: -m0 Conclusion: CDDA 100% Signature: A4F03A8704879A615FA2FFE6D3A229763FF818C7FILE: 12 Wild At Heart.flac Size: 26279001 Hash: DF4A77390840E4DFDDD12F17FAED16A0 Accuracy: -m0 Conclusion: CDDA 100% Signature: D55FAAD5CDED70218F0CD518A1EBAB150ABF2367FILE: 11 Star Sail.flac Size: 26674515 Hash: 6F3FC6FCA8667430FF5201B5473443D3 Accuracy: -m0 Conclusion: CDDA 100% Signature: 23C575AD74A58D38AFFBA18707C094534F792015FILE: 10 Skinflowers.flac Size: 39039852 Hash: C19FF23B9B21BB6450E61107CE15278F Accuracy: -m0 Conclusion: CDDA 100% Signature: DA32FE949D43B6373DF20E68E0AD9B38330359F3FILE: 09 Penthouse And Pavement.flac Size: 29939420 Hash: 77EE2A3CBC4A1FED331B08B586E5234A Accuracy: -m0 Conclusion: CDDA 100% Signature: ACC9E34663406580F4F1DF99D526A4C2BF8022C6FILE: 08 Slave To The Vibe.flac Size: 40843297 Hash: 86511222DE32AB9081BE1E58F10FD32D Accuracy: -m0 Conclusion: CDDA 100% Signature: 8446353B5FA548E21BF97744B05358E25BFDE24FFILE: 07 Move With Me.flac Size: 36680959 Hash: 0D5D890D1ACE29B643830E73DCE6B05C Accuracy: -m0 Conclusion: CDDA 100% Signature: E992E65D40146A205710F80AA303682605BADDA6FILE: 06 Oh Carolina.flac Size: 22235431 Hash: 5D03BFC3FA85B9908B7082CC514A4322 Accuracy: -m0 Conclusion: CDDA 100% Signature: 3CB87D84BE66ACAE930364DABB763522E10C360DFILE: 05 The Most Wonderful Girl.flac Size: 35962828 Hash: D1857326917CC05FDC9AD93399FFF135 Accuracy: -m0 Conclusion: CDDA 100% Signature: A330C8C58C8374A687DED69C2C7C7736FD2415D6FILE: 04 Unfinished Sympathy.flac Size: 32845478 Hash: 8B60E11777B6E2DDE04275320D0C254B Accuracy: -m0 Conclusion: CDDA 100% Signature: 421F6EBC8236A7C3913B62FA81AFFB1ACB1C98CAFILE: 03 Slid.flac Size: 23898314 Hash: FA27381DF4AF6E2FCD289FF7F113654E Accuracy: -m0 Conclusion: CDDA 100% Signature: 6FB19ADBEA7316BB3F586A7617F072380A751647FILE: 02 Carly's Song.flac Size: 24891730 Hash: 01E4796861352FC1129057AC5BCB0876 Accuracy: -m0 Conclusion: CDDA 100% Signature: A939073BAE5A32CFD824A749E886B2F8731DA5DAFILE: 01 Can't Help Falling In Love With You.flac Size: 23799821 Hash: DD0DA178764E5C4CE29E42B7E84AF0FE Accuracy: -m0 Conclusion: CDDA 100% Signature: 13A22CAC793D80E406E247C596AD379916868B14
[teatrix.ru].t13234.torrent 
Торрент: Зарегистрирован [ 2016-01-22 01:35 ] · C132EE03769A9FA3FF38730325F90BA865A8AA55

Скачать .torrent

Скачать

16 KB

Статус: проверено
Скачан: 0 раз
Размер: 364 MB
terms.php



Быстрый ответ

Имя:

      
Для отправки сообщений необходимо включить JavaScript
Показать сообщения:    

Текущее время: 08-Дек 12:56

Часовой пояс: UTC + 3


Вы можете начинать темы
Вы можете отвечать на сообщения
Вы не можете редактировать свои сообщения
Вы не можете удалять свои сообщения
Вы не можете голосовать в опросах
Вы не можете прикреплять файлы к сообщениям
Вы можете скачивать файлы