(Soundtrack) Голос улиц / Straight Outta Compton (Music From The Motion Picture) - 2016, FLAC (tracks+.cue), lossless


Статистика раздачи [Обновить пиров]
Размер:  529 MB   |    Зарегистрирован:  10 месяцев 12 дней   |    Скачан:  2 раза

Полного источника не было: 14 часов

 
   
 
 
 

[Цитировать]

Голос улиц / Straight Outta Compton (Music From The Motion Picture)- Жанр: Soundtrack
Год выпуска диска: January 8, 2016
Год выпуска фильма: August 11, 2015
Страна-производитель диска: USA
Издатель (лейбл): UMe, Priority Records, Ruthless Records
Номер по каталогу: B0023597-02
Аудиокодек: FLAC (*.flac)
Тип рипа: tracks+.cue
Битрейт аудио: lossless
Продолжительность: 01:17:48
Источник (релизер): What.cd (mrbonesSTL)
Наличие сканов в содержимом раздачи: нет
Треклист:
01 N.W.A. – Straight Outta Compton (4:17)
02 Parliament – Flash Light (4:28)
03 Eazy-E – We Want Eazy (feat. MC Ren & Dr. Dre) (5:00)
04 N.W.A. – Gangsta Gangsta (5:35)
05 Funkadelic – (Not Just) Knee Deep (4:29)
06 Eazy-E – Boyz-n-the-Hood (5:37)
07 Roy Ayers Ubiquity – Everybody Loves the Sunshine (4:00)
08 N.W.A. – Dopeman (Remix) (5:19)
09 N.W.A. – F**k tha Police (5:15)
10 N.W.A. – Express Yourself (4:23)
11 Steve Arrington's Hall of Fame – Weak at the Knees (3:48)
12 N.W.A. – Quiet on tha Set (3:57)
13 N.W.A. – 8 Ball (Remix) (4:50)
14 Ice Cube – The N***a Ya Love to Hate (3:13)
15 N.W.A. – Real N****z (4:27)
16 Ice Cube – No Vaseline (5:12)
17 Dr. Dre – Nuthin' but a "G" Thang (feat. Snoop Dogg) (3:58)
-

Лог создания рипа

Exact Audio Copy V1.1 from 23. June 2015
EAC extraction logfile from 20. January 2016, 14:23
Various Artists / Straight Outta Compton [Music From The Motion Picture]
Used drive : HL-DT-STBD-RE WH16NS40 Adapter: 1 ID: 0
Read mode : SecureUtilize accurate stream : YesDefeat audio cache : YesMake use of C2 pointers : No
Read offset correction : 6Overread into Lead-In and Lead-Out : NoFill up missing offset samples with silence : YesDelete leading and trailing silent blocks : NoNull samples used in CRC calculations : YesUsed interface : Native Win32 interface for Win NT & 2000Gap handling : Appended to previous track
Used output format : User Defined EncoderSelected bitrate : 128 kBit/sQuality : HighAdd ID3 tag : NoCommand line compressor : C:\Program Files (x86)\Exact Audio Copy\Flac\flac.exeAdditional command line options : -8 -e -V -T "ARTIST=%artist%" -T "TITLE=%title%" -T "ALBUM=%albumtitle%" -T "DATE=%year%" -T "TRACKNUMBER=%tracknr%" -T "GENRE=%genre%" -T "PERFORMER=%albuminterpret%" -T "COMPOSER=%composer%" %haslyrics%--tag-from-file=LYRICS="%lyricsfile%"%haslyrics% -T "ALBUMARTIST=%albumartist%" -T "DISCNUMBER=%cdnumber%" -T "TOTALDISCS=%totalcds%" -T "TOTALTRACKS=%numtracks%" -T "COMMENT=%comment%" %source% -o %dest%
TOC of the extracted CD
Track | Start | Length | Start sector | End sector --------------------------------------------------------- 1 | 0:00.00 | 4:17.34 | 0 | 19308 2 | 4:17.34 | 4:28.70 | 19309 | 39478 3 | 8:46.29 | 5:00.49 | 39479 | 62027 4 | 13:47.03 | 5:35.52 | 62028 | 87204 5 | 19:22.55 | 4:29.08 | 87205 | 107387 6 | 23:51.63 | 5:37.26 | 107388 | 132688 7 | 29:29.14 | 4:00.14 | 132689 | 150702 8 | 33:29.28 | 5:19.73 | 150703 | 174700 9 | 38:49.26 | 5:15.05 | 174701 | 198330 10 | 44:04.31 | 4:23.52 | 198331 | 218107 11 | 48:28.08 | 3:48.24 | 218108 | 235231 12 | 52:16.32 | 3:57.19 | 235232 | 253025 13 | 56:13.51 | 4:50.40 | 253026 | 274815 14 | 61:04.16 | 3:13.22 | 274816 | 289312 15 | 64:17.38 | 4:27.32 | 289313 | 309369 16 | 68:44.70 | 5:12.22 | 309370 | 332791 17 | 73:57.17 | 3:58.73 | 332792 | 350714
Track 1
Filename H:\EACRiPS\VA-Straight Outta Compton OST-2016-FLAC\01 - N.W.A - Straight Outta Compton.wav
Pre-gap length 0:00:02.00
Peak level 92.4 % Extraction speed 4.1 X Track quality 100.0 % Test CRC F7E887CB Copy CRC F7E887CB Track not present in AccurateRip database Copy OK
Track 2
Filename H:\EACRiPS\VA-Straight Outta Compton OST-2016-FLAC\02 - Parliament - Flash Light (Single Version).wav
Peak level 76.4 % Extraction speed 2.9 X Track quality 99.9 % Test CRC 1F6E624F Copy CRC 1F6E624F Track not present in AccurateRip database Copy OK
Track 3
Filename H:\EACRiPS\VA-Straight Outta Compton OST-2016-FLAC\03 - Eazy-E - We Want Eazy.wav
Peak level 76.7 % Extraction speed 3.5 X Track quality 100.0 % Test CRC C43BC519 Copy CRC C43BC519 Track not present in AccurateRip database Copy OK
Track 4
Filename H:\EACRiPS\VA-Straight Outta Compton OST-2016-FLAC\04 - N.W.A - Gangsta Gangsta.wav
Peak level 75.7 % Extraction speed 2.5 X Track quality 100.0 % Test CRC 80FE9D0B Copy CRC 80FE9D0B Track not present in AccurateRip database Copy OK
Track 5
Filename H:\EACRiPS\VA-Straight Outta Compton OST-2016-FLAC\05 - Funkadelic - (Not Just) Knee Deep.wav
Peak level 90.3 % Extraction speed 1.7 X Track quality 100.0 % Test CRC 32A84FE1 Copy CRC 32A84FE1 Track not present in AccurateRip database Copy OK
Track 6
Filename H:\EACRiPS\VA-Straight Outta Compton OST-2016-FLAC\06 - Eazy-E - Boyz-N-The Hood.wav
Peak level 76.8 % Extraction speed 1.8 X Track quality 100.0 % Test CRC 9D908386 Copy CRC 9D908386 Track not present in AccurateRip database Copy OK
Track 7
Filename H:\EACRiPS\VA-Straight Outta Compton OST-2016-FLAC\07 - Roy Ayers Ubiquity - Everybody Loves The Sunshine.wav
Peak level 81.1 % Extraction speed 1.8 X Track quality 100.0 % Test CRC 71EC04D6 Copy CRC 71EC04D6 Track not present in AccurateRip database Copy OK
Track 8
Filename H:\EACRiPS\VA-Straight Outta Compton OST-2016-FLAC\08 - N.W.A - Dopeman (Remix).wav
Peak level 87.2 % Extraction speed 2.0 X Track quality 100.0 % Test CRC C0AA0BB5 Copy CRC C0AA0BB5 Track not present in AccurateRip database Copy OK
Track 9
Filename H:\EACRiPS\VA-Straight Outta Compton OST-2016-FLAC\09 - N.W.A - Fuck Tha Police.wav
Peak level 90.1 % Extraction speed 1.8 X Track quality 99.9 % Test CRC 5ECFC727 Copy CRC 5ECFC727 Track not present in AccurateRip database Copy OK
Track 10
Filename H:\EACRiPS\VA-Straight Outta Compton OST-2016-FLAC\10 - N.W.A - Express Yourself.wav
Peak level 90.0 % Extraction speed 2.1 X Track quality 100.0 % Test CRC 782D5B38 Copy CRC 782D5B38 Track not present in AccurateRip database Copy OK
Track 11
Filename H:\EACRiPS\VA-Straight Outta Compton OST-2016-FLAC\11 - Steve Arrington's Hall Of Fame - Weak At The Knees (Single Version).wav
Peak level 91.0 % Extraction speed 2.2 X Track quality 100.0 % Test CRC 2D1D7DC6 Copy CRC 2D1D7DC6 Track not present in AccurateRip database Copy OK
Track 12
Filename H:\EACRiPS\VA-Straight Outta Compton OST-2016-FLAC\12 - N.W.A - Quiet On Tha Set.wav
Peak level 91.2 % Extraction speed 2.2 X Track quality 100.0 % Test CRC 713DDDF8 Copy CRC 713DDDF8 Track not present in AccurateRip database Copy OK
Track 13
Filename H:\EACRiPS\VA-Straight Outta Compton OST-2016-FLAC\13 - N.W.A - 8 Ball (Remix).wav
Peak level 72.2 % Extraction speed 2.3 X Track quality 100.0 % Test CRC D60FB65B Copy CRC D60FB65B Track not present in AccurateRip database Copy OK
Track 14
Filename H:\EACRiPS\VA-Straight Outta Compton OST-2016-FLAC\14 - Ice Cube - The Nigga Ya Love To Hate.wav
Peak level 86.0 % Extraction speed 2.3 X Track quality 100.0 % Test CRC 1B75C044 Copy CRC 1B75C044 Track not present in AccurateRip database Copy OK
Track 15
Filename H:\EACRiPS\VA-Straight Outta Compton OST-2016-FLAC\15 - N.W.A - Real Niggaz.wav
Peak level 82.2 % Extraction speed 2.4 X Track quality 100.0 % Test CRC 2983276E Copy CRC 2983276E Track not present in AccurateRip database Copy OK
Track 16
Filename H:\EACRiPS\VA-Straight Outta Compton OST-2016-FLAC\16 - Ice Cube - No Vaseline.wav
Peak level 85.1 % Extraction speed 2.6 X Track quality 100.0 % Test CRC 9A18DC58 Copy CRC 9A18DC58 Track not present in AccurateRip database Copy OK
Track 17
Filename H:\EACRiPS\VA-Straight Outta Compton OST-2016-FLAC\17 - Dr. Dre - Nuthin' But A G Thang (Feat. Snoop Dogg).wav
Peak level 97.7 % Extraction speed 2.5 X Track quality 100.0 % Test CRC 2E4DD735 Copy CRC 2E4DD735 Track not present in AccurateRip database Copy OK
None of the tracks are present in the AccurateRip database
No errors occurred
End of status report
---- CUETools DB Plugin V2.1.6
[CTDB TOCID: z7f9V7BdeoDefNlCeQLdAiI1kfE-] foundSubmit result: z7f9V7BdeoDefNlCeQLdAiI1kfE- has been confirmedTrack | CTDB Status 1 | (2/2) Accurately ripped 2 | (2/2) Accurately ripped 3 | (2/2) Accurately ripped 4 | (2/2) Accurately ripped 5 | (2/2) Accurately ripped 6 | (2/2) Accurately ripped 7 | (2/2) Accurately ripped 8 | (2/2) Accurately ripped 9 | (2/2) Accurately ripped 10 | (2/2) Accurately ripped 11 | (2/2) Accurately ripped 12 | (2/2) Accurately ripped 13 | (2/2) Accurately ripped 14 | (2/2) Accurately ripped 15 | (2/2) Accurately ripped 16 | (2/2) Accurately ripped 17 | (2/2) Accurately ripped
==== Log checksum E1A3044B45D26ECC8ADCF2119F9145656E5F89B03D7052F65CEDBA2015E94DB1 ====

Содержание индексной карты (.CUE)

REM GENRE Hip-HopREM DATE 2015REM DISCID F6124411REM COMMENT "ExactAudioCopy v1.1"PERFORMER "Various Artists"TITLE "Straight Outta Compton [Music From The Motion Picture]"FILE "01 - N.W.A - Straight Outta Compton.flac" WAVE TRACK 01 AUDIO TITLE "Straight Outta Compton" PERFORMER "N.W.A" INDEX 01 00:00:00FILE "02 - Parliament - Flash Light (Single Version).flac" WAVE TRACK 02 AUDIO TITLE "Flash Light (Single Version)" PERFORMER "Parliament" INDEX 01 00:00:00FILE "03 - Eazy-E - We Want Eazy.flac" WAVE TRACK 03 AUDIO TITLE "We Want Eazy" PERFORMER "Eazy-E" INDEX 01 00:00:00FILE "04 - N.W.A - Gangsta Gangsta.flac" WAVE TRACK 04 AUDIO TITLE "Gangsta Gangsta" PERFORMER "N.W.A" INDEX 01 00:00:00FILE "05 - Funkadelic - (Not Just) Knee Deep.flac" WAVE TRACK 05 AUDIO TITLE "(Not Just) Knee Deep" PERFORMER "Funkadelic" INDEX 01 00:00:00FILE "06 - Eazy-E - Boyz-N-The Hood.flac" WAVE TRACK 06 AUDIO TITLE "Boyz-N-The Hood" PERFORMER "Eazy-E" INDEX 01 00:00:00FILE "07 - Roy Ayers Ubiquity - Everybody Loves The Sunshine.flac" WAVE TRACK 07 AUDIO TITLE "Everybody Loves The Sunshine" PERFORMER "Roy Ayers Ubiquity" INDEX 01 00:00:00FILE "08 - N.W.A - Dopeman (Remix).flac" WAVE TRACK 08 AUDIO TITLE "Dopeman (Remix)" PERFORMER "N.W.A" INDEX 01 00:00:00FILE "09 - N.W.A - Fuck Tha Police.flac" WAVE TRACK 09 AUDIO TITLE "Fuck Tha Police" PERFORMER "N.W.A" INDEX 01 00:00:00FILE "10 - N.W.A - Express Yourself.flac" WAVE TRACK 10 AUDIO TITLE "Express Yourself" PERFORMER "N.W.A" INDEX 01 00:00:00FILE "11 - Steve Arrington's Hall Of Fame - Weak At The Knees (Single Version).flac" WAVE TRACK 11 AUDIO TITLE "Weak At The Knees (Single Version)" PERFORMER "Steve Arrington's Hall Of Fame" INDEX 01 00:00:00FILE "12 - N.W.A - Quiet On Tha Set.flac" WAVE TRACK 12 AUDIO TITLE "Quiet On Tha Set" PERFORMER "N.W.A" INDEX 01 00:00:00FILE "13 - N.W.A - 8 Ball (Remix).flac" WAVE TRACK 13 AUDIO TITLE "8 Ball (Remix)" PERFORMER "N.W.A" INDEX 01 00:00:00FILE "14 - Ice Cube - The Nigga Ya Love To Hate.flac" WAVE TRACK 14 AUDIO TITLE "The Nigga Ya Love To Hate" PERFORMER "Ice Cube" INDEX 01 00:00:00FILE "15 - N.W.A - Real Niggaz.flac" WAVE TRACK 15 AUDIO TITLE "Real Niggaz" PERFORMER "N.W.A" INDEX 01 00:00:00FILE "16 - Ice Cube - No Vaseline.flac" WAVE TRACK 16 AUDIO TITLE "No Vaseline" PERFORMER "Ice Cube" INDEX 01 00:00:00FILE "17 - Dr. Dre - Nuthin' But A G Thang (Feat. Snoop Dogg).flac" WAVE TRACK 17 AUDIO TITLE "Nuthin' But A G Thang (Feat. Snoop Dogg)" PERFORMER "Dr. Dre" INDEX 01 00:00:00

Об альбоме (сборнике)

A soundtrack album to the film entitled Straight Outta Compton: Music from the Motion Picture was released on January 8, 2016 by Universal Music Enterprises. It features songs mainly by N.W.A, but also Ice Cube, Eazy-E, Dr. Dre featuring Snoop Dogg and others.
[teatrix.ru].t13235.torrent 
Торрент: Зарегистрирован [ 2016-01-22 01:35 ] · 95263DF6A16FFCAAE0D1B65BDE66829938CB3698

Скачать .torrent

Скачать

12 KB

Статус: проверено
Скачан: 2 раз
Размер: 529 MB
terms.php



Быстрый ответ

Имя:

      
Для отправки сообщений необходимо включить JavaScript
Показать сообщения:    

Текущее время: 03-Дек 16:43

Часовой пояс: UTC + 3


Вы можете начинать темы
Вы можете отвечать на сообщения
Вы не можете редактировать свои сообщения
Вы не можете удалять свои сообщения
Вы не можете голосовать в опросах
Вы не можете прикреплять файлы к сообщениям
Вы можете скачивать файлы