(Score) Крампус / Krampus (By Douglas Pipes) - 2015, FLAC (tracks+.cue), lossless


Статистика раздачи [Обновить пиров]
Размер:  356 MB   |    Зарегистрирован:  10 месяцев 12 дней   |    Скачан:  2 раза

Полного источника не было: 2 месяца 29 дней

 
   
 
 
 

[Цитировать]

Крампус / Krampus-Жанр: Score
Композитор: Douglas Pipes
Год выпуска диска: 2015
Производитель диска: US
Издатель (лейбл): La-La Land Records
Номер по каталогу: LLLCD1381-Аудиокодек: FLAC (*.flac)
Тип рипа: tracks+.cue
Битрейт аудио: lossless
Продолжительность: 01:18:42
Источник: what.cd / unpetitmonstre
Наличие сканов в содержимом раздачи: только обложка

Треклист

01. A Cold Wind (0:47)
02. Dear Santa (1:17)
03. Family Reunion (4:18)
04. Auld Lang Syne (1:15) by Jon Kull
05. The Wish (2:39)
06. Special Delivery (0:34)
07. Bells, Bones & Chains (4:42)
08. 'Tis The Season (1:03)
09. Into The Storm (2:38)
10. Christmas Angels (1:34)
11. The Snow Beast (4:00)
12. Unholy Night (4:30)
13. Oh Christmas Tree (1:18) by John Clement Wood
14. Season's Eatings (4:30)
15. Omi's Story (3:32)
16. Naughty (1:56)
17. All Through The House (8:52)
18. Creatures Are Stirring (5:10)
19. Der Klown (2:07)
20. Elfen (2:59)
21. Elegy (0:52)
22. The Shadow Of St. Nicholas (2:08)
23. Sacrifice (3:52)
24. When The Christmas Spirit Dies (1:19)
25. Cloven (4:15)
26. The Bell (1:05)
27. End Credits: Gruss Vom Krampus / Krampus Karol Of The Bells (5:06) by Brea Olinda High School Singers
28. Krampus Karol Of The Bells (3:01) by Brea Olinda High School Singers

Лог создания рипа

X Lossless Decoder version 20151214 (149.1)
XLD extraction logfile from 2016-01-09 00:37:12 -0600
Douglas Pipes / Krampus - Original Motion Picture Soundtrack
Used drive : HL-DT-ST DVDRW GS23N (revision SB03)Media type : Pressed CD
Ripper mode : XLD Secure RipperDisable audio cache : OK for the drive with a cache less than 1375KiBMake use of C2 pointers : NORead offset correction : 667Max retry count : 20Gap status : Analyzed, Appended (except HTOA)
TOC of the extracted CD Track | Start | Length | Start sector | End sector --------------------------------------------------------- 1 | 00:00:00 | 00:47:29 | 0 | 3553 2 | 00:47:29 | 01:17:19 | 3554 | 9347 3 | 02:04:48 | 04:19:10 | 9348 | 28782 4 | 06:23:58 | 01:16:09 | 28783 | 34491 5 | 07:39:67 | 02:40:70 | 34492 | 46561 6 | 10:20:62 | 00:35:58 | 46562 | 49244 7 | 10:56:45 | 04:42:53 | 49245 | 70447 8 | 15:39:23 | 01:04:46 | 70448 | 75293 9 | 16:43:69 | 02:39:61 | 75294 | 87279 10 | 19:23:55 | 01:34:45 | 87280 | 94374 11 | 20:58:25 | 04:01:02 | 94375 | 112451 12 | 24:59:27 | 04:31:59 | 112452 | 132835 13 | 29:31:11 | 01:20:32 | 132836 | 138867 14 | 30:51:43 | 04:31:56 | 138868 | 159248 15 | 35:23:24 | 03:33:25 | 159249 | 175248 16 | 38:56:49 | 01:57:25 | 175249 | 184048 17 | 40:53:74 | 08:53:52 | 184049 | 224075 18 | 49:47:51 | 05:10:43 | 224076 | 247368 19 | 54:58:19 | 02:08:58 | 247369 | 257026 20 | 57:07:02 | 03:00:05 | 257027 | 270531 21 | 60:07:07 | 00:54:27 | 270532 | 274608 22 | 61:01:34 | 02:09:03 | 274609 | 284286 23 | 63:10:37 | 03:52:25 | 284287 | 301711 24 | 67:02:62 | 01:19:30 | 301712 | 307666 25 | 68:22:17 | 04:15:52 | 307667 | 326843 26 | 72:37:69 | 01:06:41 | 326844 | 331834 27 | 73:44:35 | 05:06:74 | 331835 | 354858
AccurateRip Summary Disc not found in AccurateRip DB.
All Tracks Album gain : -5.32 dB Peak : 0.946228 Statistics Read error : 0 Jitter error (maybe fixed) : 0 Retry sector count : 0 Damaged sector count : 0
Track 01 Filename : /Users/Sam/Documents/Torrents/Douglas Pipes – Krampus (Original Motion Picture Soundtrack)/01 Douglas Pipes - A Cold Wind.flac Pre-gap length : 00:02:00
Track gain : 10.27 dB Peak : 0.262970 CRC32 hash (test run) : EB0C5C8C CRC32 hash : EB0C5C8C CRC32 hash (skip zero) : 1189522B AccurateRip v1 signature : 02CF6715 AccurateRip v2 signature : 1C702DC5 ->Track not present in AccurateRip database. Statistics Read error : 0 Jitter error (maybe fixed) : 0 Retry sector count : 0 Damaged sector count : 0
Track 02 Filename : /Users/Sam/Documents/Torrents/Douglas Pipes – Krampus (Original Motion Picture Soundtrack)/02 Douglas Pipes - Dear Santa.flac
Track gain : 4.18 dB Peak : 0.646667 CRC32 hash (test run) : 27D9F9A4 CRC32 hash : 27D9F9A4 CRC32 hash (skip zero) : 7CCA58D7 AccurateRip v1 signature : 8267A553 AccurateRip v2 signature : 35341C09 ->Track not present in AccurateRip database. Statistics Read error : 0 Jitter error (maybe fixed) : 0 Retry sector count : 0 Damaged sector count : 0
Track 03 Filename : /Users/Sam/Documents/Torrents/Douglas Pipes – Krampus (Original Motion Picture Soundtrack)/03 Douglas Pipes - Family Reunion.flac
Track gain : 5.08 dB Peak : 0.701935 CRC32 hash (test run) : 654F05CF CRC32 hash : 654F05CF CRC32 hash (skip zero) : 0178A7C6 AccurateRip v1 signature : 21954A51 AccurateRip v2 signature : A9A10F6D ->Track not present in AccurateRip database. Statistics Read error : 0 Jitter error (maybe fixed) : 0 Retry sector count : 0 Damaged sector count : 0
Track 04 Filename : /Users/Sam/Documents/Torrents/Douglas Pipes – Krampus (Original Motion Picture Soundtrack)/04 Douglas Pipes - Auld Lang Syne.flac Pre-gap length : 00:01:00
Track gain : -2.76 dB Peak : 0.943970 CRC32 hash (test run) : 1844C60A CRC32 hash : 1844C60A CRC32 hash (skip zero) : 53A82F28 AccurateRip v1 signature : 0CF593B7 AccurateRip v2 signature : 8D9620D1 ->Track not present in AccurateRip database. Statistics Read error : 0 Jitter error (maybe fixed) : 0 Retry sector count : 0 Damaged sector count : 0
Track 05 Filename : /Users/Sam/Documents/Torrents/Douglas Pipes – Krampus (Original Motion Picture Soundtrack)/05 Douglas Pipes - The Wish.flac Pre-gap length : 00:01:00
Track gain : -5.70 dB Peak : 0.944000 CRC32 hash (test run) : 024FE18D CRC32 hash : 024FE18D CRC32 hash (skip zero) : 753E3C13 AccurateRip v1 signature : 23D07B11 AccurateRip v2 signature : E0F5B080 ->Track not present in AccurateRip database. Statistics Read error : 0 Jitter error (maybe fixed) : 0 Retry sector count : 0 Damaged sector count : 0
Track 06 Filename : /Users/Sam/Documents/Torrents/Douglas Pipes – Krampus (Original Motion Picture Soundtrack)/06 Douglas Pipes - Special Delivery.flac Pre-gap length : 00:01:37
Track gain : 2.21 dB Peak : 0.682281 CRC32 hash (test run) : 831531BF CRC32 hash : 831531BF CRC32 hash (skip zero) : 8B253FAF AccurateRip v1 signature : AF4B0352 AccurateRip v2 signature : 1C4CA4CB ->Track not present in AccurateRip database. Statistics Read error : 0 Jitter error (maybe fixed) : 0 Retry sector count : 0 Damaged sector count : 0
Track 07 Filename : /Users/Sam/Documents/Torrents/Douglas Pipes – Krampus (Original Motion Picture Soundtrack)/07 Douglas Pipes - Bells, Bones, And Chains.flac Pre-gap length : 00:01:37
Track gain : -4.80 dB Peak : 0.944000 CRC32 hash (test run) : 7BF3EEF2 CRC32 hash : 7BF3EEF2 CRC32 hash (skip zero) : 2C6D1EEB AccurateRip v1 signature : 4A03AFF6 AccurateRip v2 signature : 9F95617B ->Track not present in AccurateRip database. Statistics Read error : 0 Jitter error (maybe fixed) : 0 Retry sector count : 0 Damaged sector count : 0
Track 08 Filename : /Users/Sam/Documents/Torrents/Douglas Pipes – Krampus (Original Motion Picture Soundtrack)/08 Douglas Pipes - 'Tis The Season.flac Pre-gap length : 00:00:37
Track gain : 6.59 dB Peak : 0.357239 CRC32 hash (test run) : 17443494 CRC32 hash : 17443494 CRC32 hash (skip zero) : 822AEE96 AccurateRip v1 signature : 3901A4DF AccurateRip v2 signature : C726C06D ->Track not present in AccurateRip database. Statistics Read error : 0 Jitter error (maybe fixed) : 0 Retry sector count : 0 Damaged sector count : 0
Track 09 Filename : /Users/Sam/Documents/Torrents/Douglas Pipes – Krampus (Original Motion Picture Soundtrack)/09 Douglas Pipes - Into The Storm.flac Pre-gap length : 00:01:00
Track gain : 0.61 dB Peak : 0.943939 CRC32 hash (test run) : CBABC871 CRC32 hash : CBABC871 CRC32 hash (skip zero) : B683B940 AccurateRip v1 signature : 89503B8E AccurateRip v2 signature : 06C3CF4C ->Track not present in AccurateRip database. Statistics Read error : 0 Jitter error (maybe fixed) : 0 Retry sector count : 0 Damaged sector count : 0
Track 10 Filename : /Users/Sam/Documents/Torrents/Douglas Pipes – Krampus (Original Motion Picture Soundtrack)/10 Douglas Pipes - Christmas Angels.flac Pre-gap length : 00:01:37
Track gain : -1.06 dB Peak : 0.909210 CRC32 hash (test run) : 9BAE5DFC CRC32 hash : 9BAE5DFC CRC32 hash (skip zero) : BB7FD344 AccurateRip v1 signature : 6F6FD60D AccurateRip v2 signature : CFDA62E6 ->Track not present in AccurateRip database. Statistics Read error : 0 Jitter error (maybe fixed) : 0 Retry sector count : 0 Damaged sector count : 0
Track 11 Filename : /Users/Sam/Documents/Torrents/Douglas Pipes – Krampus (Original Motion Picture Soundtrack)/11 Douglas Pipes - The Snow Beast.flac Pre-gap length : 00:00:07
Track gain : -9.38 dB Peak : 0.944183 CRC32 hash (test run) : AE1408AD CRC32 hash : AE1408AD CRC32 hash (skip zero) : AE5E3016 AccurateRip v1 signature : B27192D5 AccurateRip v2 signature : A71E6F86 ->Track not present in AccurateRip database. Statistics Read error : 0 Jitter error (maybe fixed) : 0 Retry sector count : 0 Damaged sector count : 0
Track 12 Filename : /Users/Sam/Documents/Torrents/Douglas Pipes – Krampus (Original Motion Picture Soundtrack)/12 Douglas Pipes - Unholy Night.flac Pre-gap length : 00:00:37
Track gain : -2.32 dB Peak : 0.944000 CRC32 hash (test run) : C53010E7 CRC32 hash : C53010E7 CRC32 hash (skip zero) : 2513A0DF AccurateRip v1 signature : DB9BA479 AccurateRip v2 signature : 70972313 ->Track not present in AccurateRip database. Statistics Read error : 0 Jitter error (maybe fixed) : 0 Retry sector count : 0 Damaged sector count : 0
Track 13 Filename : /Users/Sam/Documents/Torrents/Douglas Pipes – Krampus (Original Motion Picture Soundtrack)/13 Douglas Pipes - Oh Christmas Tree.flac Pre-gap length : 00:01:37
Track gain : -3.62 dB Peak : 0.946228 CRC32 hash (test run) : 9BF898BC CRC32 hash : 9BF898BC CRC32 hash (skip zero) : 11AFE83D AccurateRip v1 signature : 362ADB7A AccurateRip v2 signature : ADB33E9D ->Track not present in AccurateRip database. Statistics Read error : 0 Jitter error (maybe fixed) : 0 Retry sector count : 0 Damaged sector count : 0
Track 14 Filename : /Users/Sam/Documents/Torrents/Douglas Pipes – Krampus (Original Motion Picture Soundtrack)/14 Douglas Pipes - Season's Eatings.flac Pre-gap length : 00:01:37
Track gain : -6.54 dB Peak : 0.944000 CRC32 hash (test run) : 3EDB558E CRC32 hash : 3EDB558E CRC32 hash (skip zero) : 09411335 AccurateRip v1 signature : 7C2ABDF2 AccurateRip v2 signature : 14580427 ->Track not present in AccurateRip database. Statistics Read error : 0 Jitter error (maybe fixed) : 0 Retry sector count : 0 Damaged sector count : 0
Track 15 Filename : /Users/Sam/Documents/Torrents/Douglas Pipes – Krampus (Original Motion Picture Soundtrack)/15 Douglas Pipes - Omi's Story.flac Pre-gap length : 00:01:37
Track gain : -0.69 dB Peak : 0.943970 CRC32 hash (test run) : 069C9F20 CRC32 hash : 069C9F20 CRC32 hash (skip zero) : 5B69F919 AccurateRip v1 signature : 69817033 AccurateRip v2 signature : 63362283 ->Track not present in AccurateRip database. Statistics Read error : 0 Jitter error (maybe fixed) : 0 Retry sector count : 0 Damaged sector count : 0
Track 16 Filename : /Users/Sam/Documents/Torrents/Douglas Pipes – Krampus (Original Motion Picture Soundtrack)/16 Douglas Pipes - Naughty.flac Pre-gap length : 00:01:00
Track gain : -0.31 dB Peak : 0.944000 CRC32 hash (test run) : 4D4A0EA6 CRC32 hash : 4D4A0EA6 CRC32 hash (skip zero) : A6B4D643 AccurateRip v1 signature : 3D5F8A92 AccurateRip v2 signature : 5A6D0EB5 ->Track not present in AccurateRip database. Statistics Read error : 0 Jitter error (maybe fixed) : 0 Retry sector count : 0 Damaged sector count : 0
Track 17 Filename : /Users/Sam/Documents/Torrents/Douglas Pipes – Krampus (Original Motion Picture Soundtrack)/17 Douglas Pipes - All Through The House.flac Pre-gap length : 00:00:37
Track gain : 1.26 dB Peak : 0.944427 CRC32 hash (test run) : CDB83B0E CRC32 hash : CDB83B0E CRC32 hash (skip zero) : 536306CD AccurateRip v1 signature : F5D3BCD3 AccurateRip v2 signature : ADCE6D4E ->Track not present in AccurateRip database. Statistics Read error : 0 Jitter error (maybe fixed) : 0 Retry sector count : 0 Damaged sector count : 0
Track 18 Filename : /Users/Sam/Documents/Torrents/Douglas Pipes – Krampus (Original Motion Picture Soundtrack)/18 Douglas Pipes - Creatures Are Stirring.flac Pre-gap length : 00:01:00
Track gain : -7.59 dB Peak : 0.944000 CRC32 hash (test run) : EA4675E6 CRC32 hash : EA4675E6 CRC32 hash (skip zero) : A2EBA54C AccurateRip v1 signature : 182A314D AccurateRip v2 signature : 333897F0 ->Track not present in AccurateRip database. Statistics Read error : 0 Jitter error (maybe fixed) : 0 Retry sector count : 0 Damaged sector count : 0
Track 19 Filename : /Users/Sam/Documents/Torrents/Douglas Pipes – Krampus (Original Motion Picture Soundtrack)/19 Douglas Pipes - Der Klown.flac Pre-gap length : 00:00:37
Track gain : 4.46 dB Peak : 0.944000 CRC32 hash (test run) : 2725FE58 CRC32 hash : 2725FE58 CRC32 hash (skip zero) : 9BE4E92B AccurateRip v1 signature : F35BAAD6 AccurateRip v2 signature : EF78DBB9 ->Track not present in AccurateRip database. Statistics Read error : 0 Jitter error (maybe fixed) : 0 Retry sector count : 0 Damaged sector count : 0
Track 20 Filename : /Users/Sam/Documents/Torrents/Douglas Pipes – Krampus (Original Motion Picture Soundtrack)/20 Douglas Pipes - Elfen.flac Pre-gap length : 00:01:00
Track gain : -7.30 dB Peak : 0.944000 CRC32 hash (test run) : 10A47D03 CRC32 hash : 10A47D03 CRC32 hash (skip zero) : 9A06A7E4 AccurateRip v1 signature : 1A2C8EA3 AccurateRip v2 signature : C552FA5E ->Track not present in AccurateRip database. Statistics Read error : 0 Jitter error (maybe fixed) : 0 Retry sector count : 0 Damaged sector count : 0
Track 21 Filename : /Users/Sam/Documents/Torrents/Douglas Pipes – Krampus (Original Motion Picture Soundtrack)/21 Douglas Pipes - Elegy.flac Pre-gap length : 00:00:17
Track gain : -1.90 dB Peak : 0.937103 CRC32 hash (test run) : 93845085 CRC32 hash : 93845085 CRC32 hash (skip zero) : 140F6B61 AccurateRip v1 signature : FF59D0BA AccurateRip v2 signature : 3BDB8288 ->Track not present in AccurateRip database. Statistics Read error : 0 Jitter error (maybe fixed) : 0 Retry sector count : 0 Damaged sector count : 0
Track 22 Filename : /Users/Sam/Documents/Torrents/Douglas Pipes – Krampus (Original Motion Picture Soundtrack)/22 Douglas Pipes - The Shadow Of St. Nicholas.flac Pre-gap length : 00:01:37
Track gain : -6.40 dB Peak : 0.944000 CRC32 hash (test run) : B1969DF7 CRC32 hash : B1969DF7 CRC32 hash (skip zero) : F432F3D9 AccurateRip v1 signature : 04BD4F62 AccurateRip v2 signature : 94D7B05F ->Track not present in AccurateRip database. Statistics Read error : 0 Jitter error (maybe fixed) : 0 Retry sector count : 0 Damaged sector count : 0
Track 23 Filename : /Users/Sam/Documents/Torrents/Douglas Pipes – Krampus (Original Motion Picture Soundtrack)/23 Douglas Pipes - Sacrifice.flac Pre-gap length : 00:00:49
Track gain : -6.01 dB Peak : 0.944000 CRC32 hash (test run) : BC427958 CRC32 hash : BC427958 CRC32 hash (skip zero) : CF4C6491 AccurateRip v1 signature : DC314C27 AccurateRip v2 signature : 9470FC1A ->Track not present in AccurateRip database. Statistics Read error : 0 Jitter error (maybe fixed) : 0 Retry sector count : 0 Damaged sector count : 0
Track 24 Filename : /Users/Sam/Documents/Torrents/Douglas Pipes – Krampus (Original Motion Picture Soundtrack)/24 Douglas Pipes - When The Christmas Spirit Dies.flac Pre-gap length : 00:00:06
Track gain : 2.80 dB Peak : 0.597595 CRC32 hash (test run) : 97707932 CRC32 hash : 97707932 CRC32 hash (skip zero) : C41CCD2D AccurateRip v1 signature : BDA805F1 AccurateRip v2 signature : 5CC2939F ->Track not present in AccurateRip database. Statistics Read error : 0 Jitter error (maybe fixed) : 0 Retry sector count : 0 Damaged sector count : 0
Track 25 Filename : /Users/Sam/Documents/Torrents/Douglas Pipes – Krampus (Original Motion Picture Soundtrack)/25 Douglas Pipes - Cloven.flac
Track gain : -4.33 dB Peak : 0.944000 CRC32 hash (test run) : EFE6E7C3 CRC32 hash : EFE6E7C3 CRC32 hash (skip zero) : 139FB0F9 AccurateRip v1 signature : E1F20577 AccurateRip v2 signature : 00A5137F ->Track not present in AccurateRip database. Statistics Read error : 0 Jitter error (maybe fixed) : 0 Retry sector count : 0 Damaged sector count : 0
Track 26 Filename : /Users/Sam/Documents/Torrents/Douglas Pipes – Krampus (Original Motion Picture Soundtrack)/26 Douglas Pipes - The Bell.flac
Track gain : 3.13 dB Peak : 0.663452 CRC32 hash (test run) : 08C0089D CRC32 hash : 08C0089D CRC32 hash (skip zero) : 8680B214 AccurateRip v1 signature : C08F1A36 AccurateRip v2 signature : 5731B7B8 ->Track not present in AccurateRip database. Statistics Read error : 0 Jitter error (maybe fixed) : 0 Retry sector count : 0 Damaged sector count : 0
Track 27 Filename : /Users/Sam/Documents/Torrents/Douglas Pipes – Krampus (Original Motion Picture Soundtrack)/27 Douglas Pipes - End Credits: Gruss Vom Krampus/Krampus Karol Of The Bells.flac Pre-gap length : 00:01:00
Track gain : -7.09 dB Peak : 0.944000 CRC32 hash (test run) : 4D1A1571 CRC32 hash : 4D1A1571 CRC32 hash (skip zero) : FA5F31AB AccurateRip v1 signature : F8DEE7DF AccurateRip v2 signature : AB02879C ->Track not present in AccurateRip database. Statistics Read error : 0 Jitter error (maybe fixed) : 0 Retry sector count : 0 Damaged sector count : 0
No errors occurred
End of status report
-----BEGIN XLD SIGNATURE-----J5O54BPb6LKabvB.bZ_ftVr0mQWyEZQAJPL3ViSExkHr6nnOp03od9ydKRKIHWMfp1LD3Yhyg1BJXjm1JM8f.A_BKDCqrIQCJA3z3Fa-----END XLD SIGNATURE-----

Содержание индексной карты (.CUE)

TITLE "Krampus - Original Motion Picture Soundtrack"PERFORMER "Douglas Pipes"CATALOG 0826924138120REM GENRE "Soundtrack"REM DATE "2015"REM DISCNUMBER 1REM TOTALDISCS 1REM DISCID 74127B1BREM REPLAYGAIN_ALBUM_GAIN -5.32 dBREM REPLAYGAIN_ALBUM_PEAK 0.946228FILE "01 Douglas Pipes - A Cold Wind.flac" WAVE TRACK 01 AUDIO TITLE "A Cold Wind" PERFORMER "Douglas Pipes" ISRC USQ4E1501915 REM REPLAYGAIN_TRACK_GAIN 10.27 dB REM REPLAYGAIN_TRACK_PEAK 0.262970 INDEX 01 00:00:00FILE "02 Douglas Pipes - Dear Santa.flac" WAVE TRACK 02 AUDIO TITLE "Dear Santa" PERFORMER "Douglas Pipes" ISRC USQ4E1501916 REM REPLAYGAIN_TRACK_GAIN 4.18 dB REM REPLAYGAIN_TRACK_PEAK 0.646667 INDEX 01 00:00:00FILE "03 Douglas Pipes - Family Reunion.flac" WAVE TRACK 03 AUDIO TITLE "Family Reunion" PERFORMER "Douglas Pipes" ISRC USQ4E1501917 REM REPLAYGAIN_TRACK_GAIN 5.08 dB REM REPLAYGAIN_TRACK_PEAK 0.701935 INDEX 01 00:00:00 TRACK 04 AUDIO TITLE "Auld Lang Syne" PERFORMER "Douglas Pipes" ISRC USQ4E1501918 REM REPLAYGAIN_TRACK_GAIN -2.76 dB REM REPLAYGAIN_TRACK_PEAK 0.943970 INDEX 00 04:18:10FILE "04 Douglas Pipes - Auld Lang Syne.flac" WAVE INDEX 01 00:00:00 TRACK 05 AUDIO TITLE "The Wish" PERFORMER "Douglas Pipes" ISRC USQ4E1501919 REM REPLAYGAIN_TRACK_GAIN -5.70 dB REM REPLAYGAIN_TRACK_PEAK 0.944000 INDEX 00 01:15:09FILE "05 Douglas Pipes - The Wish.flac" WAVE INDEX 01 00:00:00 TRACK 06 AUDIO TITLE "Special Delivery" PERFORMER "Douglas Pipes" ISRC USQ4E1501920 REM REPLAYGAIN_TRACK_GAIN 2.21 dB REM REPLAYGAIN_TRACK_PEAK 0.682281 INDEX 00 02:39:33FILE "06 Douglas Pipes - Special Delivery.flac" WAVE INDEX 01 00:00:00 TRACK 07 AUDIO TITLE "Bells, Bones, And Chains" PERFORMER "Douglas Pipes" ISRC USQ4E1501921 REM REPLAYGAIN_TRACK_GAIN -4.80 dB REM REPLAYGAIN_TRACK_PEAK 0.944000 INDEX 00 00:34:21FILE "07 Douglas Pipes - Bells, Bones, And Chains.flac" WAVE INDEX 01 00:00:00 TRACK 08 AUDIO TITLE "'Tis The Season" PERFORMER "Douglas Pipes" ISRC USQ4E1501922 REM REPLAYGAIN_TRACK_GAIN 6.59 dB REM REPLAYGAIN_TRACK_PEAK 0.357239 INDEX 00 04:42:16FILE "08 Douglas Pipes - 'Tis The Season.flac" WAVE INDEX 01 00:00:00 TRACK 09 AUDIO TITLE "Into The Storm" PERFORMER "Douglas Pipes" ISRC USQ4E1501923 REM REPLAYGAIN_TRACK_GAIN 0.61 dB REM REPLAYGAIN_TRACK_PEAK 0.943939 INDEX 00 01:03:46FILE "09 Douglas Pipes - Into The Storm.flac" WAVE INDEX 01 00:00:00 TRACK 10 AUDIO TITLE "Christmas Angels" PERFORMER "Douglas Pipes" ISRC USQ4E1501924 REM REPLAYGAIN_TRACK_GAIN -1.06 dB REM REPLAYGAIN_TRACK_PEAK 0.909210 INDEX 00 02:38:24FILE "10 Douglas Pipes - Christmas Angels.flac" WAVE INDEX 01 00:00:00 TRACK 11 AUDIO TITLE "The Snow Beast" PERFORMER "Douglas Pipes" ISRC USQ4E1501925 REM REPLAYGAIN_TRACK_GAIN -9.38 dB REM REPLAYGAIN_TRACK_PEAK 0.944183 INDEX 00 01:34:38FILE "11 Douglas Pipes - The Snow Beast.flac" WAVE INDEX 01 00:00:00 TRACK 12 AUDIO TITLE "Unholy Night" PERFORMER "Douglas Pipes" ISRC USQ4E1501926 REM REPLAYGAIN_TRACK_GAIN -2.32 dB REM REPLAYGAIN_TRACK_PEAK 0.944000 INDEX 00 04:00:40FILE "12 Douglas Pipes - Unholy Night.flac" WAVE INDEX 01 00:00:00 TRACK 13 AUDIO TITLE "Oh Christmas Tree" PERFORMER "Douglas Pipes" ISRC USQ4E1501927 REM REPLAYGAIN_TRACK_GAIN -3.62 dB REM REPLAYGAIN_TRACK_PEAK 0.946228 INDEX 00 04:30:22FILE "13 Douglas Pipes - Oh Christmas Tree.flac" WAVE INDEX 01 00:00:00 TRACK 14 AUDIO TITLE "Season's Eatings" PERFORMER "Douglas Pipes" ISRC USQ4E1501928 REM REPLAYGAIN_TRACK_GAIN -6.54 dB REM REPLAYGAIN_TRACK_PEAK 0.944000 INDEX 00 01:18:70FILE "14 Douglas Pipes - Season's Eatings.flac" WAVE INDEX 01 00:00:00 TRACK 15 AUDIO TITLE "Omi's Story" PERFORMER "Douglas Pipes" ISRC USQ4E1501929 REM REPLAYGAIN_TRACK_GAIN -0.69 dB REM REPLAYGAIN_TRACK_PEAK 0.943970 INDEX 00 04:30:19FILE "15 Douglas Pipes - Omi's Story.flac" WAVE INDEX 01 00:00:00 TRACK 16 AUDIO TITLE "Naughty" PERFORMER "Douglas Pipes" ISRC USQ4E1501930 REM REPLAYGAIN_TRACK_GAIN -0.31 dB REM REPLAYGAIN_TRACK_PEAK 0.944000 INDEX 00 03:32:25FILE "16 Douglas Pipes - Naughty.flac" WAVE INDEX 01 00:00:00 TRACK 17 AUDIO TITLE "All Through The House" PERFORMER "Douglas Pipes" ISRC USQ4E1501931 REM REPLAYGAIN_TRACK_GAIN 1.26 dB REM REPLAYGAIN_TRACK_PEAK 0.944427 INDEX 00 01:56:63FILE "17 Douglas Pipes - All Through The House.flac" WAVE INDEX 01 00:00:00 TRACK 18 AUDIO TITLE "Creatures Are Stirring" PERFORMER "Douglas Pipes" ISRC USQ4E1501932 REM REPLAYGAIN_TRACK_GAIN -7.59 dB REM REPLAYGAIN_TRACK_PEAK 0.944000 INDEX 00 08:52:52FILE "18 Douglas Pipes - Creatures Are Stirring.flac" WAVE INDEX 01 00:00:00 TRACK 19 AUDIO TITLE "Der Klown" PERFORMER "Douglas Pipes" ISRC USQ4E1501933 REM REPLAYGAIN_TRACK_GAIN 4.46 dB REM REPLAYGAIN_TRACK_PEAK 0.944000 INDEX 00 05:10:06FILE "19 Douglas Pipes - Der Klown.flac" WAVE INDEX 01 00:00:00 TRACK 20 AUDIO TITLE "Elfen" PERFORMER "Douglas Pipes" ISRC USQ4E1501934 REM REPLAYGAIN_TRACK_GAIN -7.30 dB REM REPLAYGAIN_TRACK_PEAK 0.944000 INDEX 00 02:07:58FILE "20 Douglas Pipes - Elfen.flac" WAVE INDEX 01 00:00:00 TRACK 21 AUDIO TITLE "Elegy" PERFORMER "Douglas Pipes" ISRC USQ4E1501935 REM REPLAYGAIN_TRACK_GAIN -1.90 dB REM REPLAYGAIN_TRACK_PEAK 0.937103 INDEX 00 02:59:63FILE "21 Douglas Pipes - Elegy.flac" WAVE INDEX 01 00:00:00 TRACK 22 AUDIO TITLE "The Shadow Of St. Nicholas" PERFORMER "Douglas Pipes" ISRC USQ4E1501936 REM REPLAYGAIN_TRACK_GAIN -6.40 dB REM REPLAYGAIN_TRACK_PEAK 0.944000 INDEX 00 00:52:65FILE "22 Douglas Pipes - The Shadow Of St. Nicholas.flac" WAVE INDEX 01 00:00:00 TRACK 23 AUDIO TITLE "Sacrifice" PERFORMER "Douglas Pipes" ISRC USQ4E1501937 REM REPLAYGAIN_TRACK_GAIN -6.01 dB REM REPLAYGAIN_TRACK_PEAK 0.944000 INDEX 00 02:08:29FILE "23 Douglas Pipes - Sacrifice.flac" WAVE INDEX 01 00:00:00 TRACK 24 AUDIO TITLE "When The Christmas Spirit Dies" PERFORMER "Douglas Pipes" ISRC USQ4E1501938 REM REPLAYGAIN_TRACK_GAIN 2.80 dB REM REPLAYGAIN_TRACK_PEAK 0.597595 INDEX 00 03:52:19FILE "24 Douglas Pipes - When The Christmas Spirit Dies.flac" WAVE INDEX 01 00:00:00FILE "25 Douglas Pipes - Cloven.flac" WAVE TRACK 25 AUDIO TITLE "Cloven" PERFORMER "Douglas Pipes" ISRC USQ4E1501939 REM REPLAYGAIN_TRACK_GAIN -4.33 dB REM REPLAYGAIN_TRACK_PEAK 0.944000 INDEX 01 00:00:00FILE "26 Douglas Pipes - The Bell.flac" WAVE TRACK 26 AUDIO TITLE "The Bell" PERFORMER "Douglas Pipes" ISRC USQ4E1501940 REM REPLAYGAIN_TRACK_GAIN 3.13 dB REM REPLAYGAIN_TRACK_PEAK 0.663452 INDEX 01 00:00:00 TRACK 27 AUDIO TITLE "End Credits: Gruss Vom Krampus/Krampus Karol Of The Bells" PERFORMER "Douglas Pipes" ISRC USQ4E1501941 REM REPLAYGAIN_TRACK_GAIN -7.09 dB REM REPLAYGAIN_TRACK_PEAK 0.944000 INDEX 00 01:05:41FILE "27 Douglas Pipes - End Credits - Gruss vom Krampus - Krampus Karol Of The Bells.flac" WAVE INDEX 01 00:00:00
[teatrix.ru].t13236.torrent 
Торрент: Зарегистрирован [ 2016-01-22 01:35 ] · 7883369BB0FD751AEA8237F1D7D1370A17C59A3E

Скачать .torrent

Скачать

16 KB

Статус: проверено
Скачан: 2 раз
Размер: 356 MB
terms.php



Быстрый ответ

Имя:

      
Для отправки сообщений необходимо включить JavaScript
Показать сообщения:    

Текущее время: 03-Дек 03:23

Часовой пояс: UTC + 3


Вы можете начинать темы
Вы можете отвечать на сообщения
Вы не можете редактировать свои сообщения
Вы не можете удалять свои сообщения
Вы не можете голосовать в опросах
Вы не можете прикреплять файлы к сообщениям
Вы можете скачивать файлы