Ilc - Bums & Tums [2005, H.264, WEBRip, ENG] (Видеоурок)


Статистика раздачи [Обновить пиров]
Размер:  814 MB   |    Зарегистрирован:  10 месяцев 12 дней   |    Скачан:  0 раз

Полного источника не было: Никогда

 
   
 
 
 

[Цитировать]

Bums & Tums- -Производитель: Ilc
Тип раздаваемого материала: Видеоурок
Автор: Micah Hudson
Продолжительность: 00:58:19
Сайт производителя: www.amazon.co.uk/Micah-Bums-And-Tums-DVD/dp/B00005UMRD
Год выпуска: 2005
Язык: Английский
Перевод: Отсутствует
Описание: Гранада телевизионный фитнес-гуру, МГМПГ Hudson) разработала это эффективное упражнение для целевых областях людей найти наиболее трудно тон ..... 'давайте дадим шанс другой партии и Tums'. Эти как правило для дополнительной калорий, особенно встал и ниже талии. Этот забавный и эффективного workoutincludes как сжигание жира пол аэробным интервалы и медленнее с вод. ритма полупрозрачная промежутки времени, чтобы действительно сосредоточить свое внимание на ужесточение и прекрасно утоляющий жажду вашей "проблемы".-Granada Television's fitness guru, Micah Hudson has designed this effective workout program to target the areas people find most difficult to tone.....'Bums and tums'. These areas tend to hold extra calories, especially the midriff and below the waist. This fun and effective workoutincludes both fat burning floor aerobic intervals and slower paced toning intervals to really concentrate on tightening and toning your 'problem areas'.-
-

Media Info

General
Complete name : Micah Hudson - Bums & Tums.mp4
Format : MPEG-4
Format profile : Base Media / Version 2
Codec ID : mp42
File size : 814 MiB
Duration : 58mn 19s
Overall bit rate mode : Variable
Overall bit rate : 1 952 Kbps
Encoded date : UTC 2036-02-06 06:28:16
Tagged date : UTC 2036-02-06 06:28:16
Writing application : HandBrake 0.10.2 2015060900
Video
ID : 1
Format : AVC
Format/Info : Advanced Video Codec
Format profile : Main@L4.0
Format settings, CABAC : Yes
Format settings, ReFrames : 4 frames
Codec ID : avc1
Codec ID/Info : Advanced Video Coding
Duration : 58mn 19s
Bit rate : 1 786 Kbps
Width : 750pixels
Height : 572 pixels
Display aspect ratio : 4:3
Frame rate mode : Variable
Frame rate : 24.984 fps
Minimum frame rate : 8.333 fps
Maximum frame rate : 25.000 fps
Color space : YUV
Chroma subsampling : 4:2:0
Bit depth : 8 bits
Scan type : Progressive
Bits/(Pixel*Frame) : 0.178
Stream size : 745 MiB (91%)
Writing library : x264 core 142 r2479 dd79a61
Encoded date : UTC 2036-02-06 06:28:16
Tagged date : UTC 2036-02-06 06:28:16
Color primaries : BT.470-6 System B, BT.470-6 System G, BT.601-6 625, BT.1358 625, BT.1700 625 PAL, BT.1700 625 SECAM
Transfer characteristics : BT.709-5, BT.1361
Matrix coefficients : BT.601-6 525, BT.1358 525, BT.1700 NTSC, SMPTE 170M
Audio
ID : 2
Format : AAC
Format/Info : Advanced Audio Codec
Format profile : LC
Codec ID : 40
Duration : 58mn 19s
Bit rate mode : Variable
Bit rate : 160 Kbps
Channel(s) : 2 channels
Channel positions : Front: L R
Sampling rate : 48.0 KHz
Compression mode : Lossy
Stream size : 66.9 MiB (8%)
Title : Stereo
Encoded date : UTC 2036-02-06 06:28:16
Tagged date : UTC 2036-02-06 06:28:16
Text
ID : 3
Format : Apple text
Codec ID : text
Duration : 58mn 19s
Bit rate mode : Constant
Bit rate : 0
Stream size : 92.0 Bytes (0%)
Language : English
Encoded date : UTC 2036-02-06 06:28:16
Tagged date : UTC 2036-02-06 06:28:16
Формат: MP4
Видео кодек: H.264
Аудио кодек: AAC
Видео: AVC, 750x572, 4:3, 25.000 fps, ~ 1786 Kbps
Аудио: AAC, 48.0 KHz, ~ 160.0 Kbps, 2 channels

Скриншоты

[teatrix.ru].t13293.torrent 
Торрент: Зарегистрирован [ 2016-01-22 01:35 ] · 896DF864FCAB46EB1CB9D759624F0652F7943896

Скачать .torrent

Скачать

32 KB

Статус: проверено
Скачан: 0 раз
Размер: 814 MB
terms.php



Быстрый ответ

Имя:

      
Для отправки сообщений необходимо включить JavaScript
Показать сообщения:    

Текущее время: 03-Дек 09:51

Часовой пояс: UTC + 3


Вы можете начинать темы
Вы можете отвечать на сообщения
Вы не можете редактировать свои сообщения
Вы не можете удалять свои сообщения
Вы не можете голосовать в опросах
Вы не можете прикреплять файлы к сообщениям
Вы можете скачивать файлы