Green Umbrella - Easy Fit with Diana Moran [2010, H.264, WEBRip, ENG] (Видеоурок)


Статистика раздачи [Обновить пиров]
Размер:  1.03 GB   |    Зарегистрирован:  10 месяцев 19 дней   |    Скачан:  0 раз

Полного источника не было: Никогда

 
   
 
 
 

[Цитировать]

Easy Fit with Diana Moran- -Производитель: Green Umbrella
Тип раздаваемого материала: Видеоурок
Автор: Diana Moran
Продолжительность: 01:13:35
Сайт производителя: www.amazon.co.uk/Easy-Fit-Diana-Moran-Version/dp/B003SDJORG
Год выпуска: 2010
Язык: Английский
Перевод: Отсутствует
Описание: Природные красоты и сталкиваются с учений с зеленой богини Stannah Stairlifts и Диана Моран выпуск эффективных фитнес-DVD для лица и тела Stannah Stairlifts вместе с 71-летней фитнес-гуру и модель, Диана Моран, добавил лицевые упражнения, чтобы ее революционного фитнес-DVD, уборка фитнес-с естественной красотой режима, который работает для стимулирования лицевых мускулов и оставить вас свежим и ярким.-NATURAL BEAUTY AND FACE EXERCISES WITH THE GREEN GODDESS Stannah Stairlifts and Diana Moran release an effective fitness DVD for the face and body Stannah Stairlifts together with 71-year-old fitness guru and model, Diana Moran, has added facial exercises to its revolutionary fitness DVD, combining fitness with a natural beauty regime that works to stimulate facial muscles and leave you feeling fresh and glowing.-
-

Media Info

General
Complete name : Easy Fit with Diana Moran.mp4
Format : MPEG-4
Format profile : Base Media / Version 2
Codec ID : mp42
File size : 1.03 GiB
Duration : 1h 13mn
Overall bit rate mode : Variable
Overall bit rate : 2 010 Kbps
Encoded date : UTC 2036-02-06 06:28:16
Tagged date : UTC 2036-02-06 06:28:16
Writing application : HandBrake 0.10.2 2015060900
Video
ID : 1
Format : AVC
Format/Info : Advanced Video Codec
Format profile : Main@L4.0
Format settings, CABAC : Yes
Format settings, ReFrames : 4 frames
Codec ID : avc1
Codec ID/Info : Advanced Video Coding
Duration : 1h 13mn
Bit rate : 1 847 Kbps
Width : 1024 pixels
Height : 576 pixels
Display aspect ratio : 16:9
Frame rate mode : Constant
Frame rate : 25.000 fps
Standard : PAL
Color space : YUV
Chroma subsampling : 4:2:0
Bit depth : 8 bits
Scan type : Progressive
Bits/(Pixel*Frame) : 0.178
Stream size : 972 MiB (92%)
Writing library : x264 core 142 r2479 dd79a61
Encoded date : UTC 2036-02-06 06:28:16
Tagged date : UTC 2036-02-06 06:28:16
Color primaries : BT.470-6 System B, BT.470-6 System G, BT.601-6 625, BT.1358 625, BT.1700 625 PAL, BT.1700 625 SECAM
Transfer characteristics : BT.709-5, BT.1361
Matrix coefficients : BT.601-6 525, BT.1358 525, BT.1700 NTSC, SMPTE 170M
Audio
ID : 2
Format : AAC
Format/Info : Advanced Audio Codec
Format profile : LC
Codec ID : 40
Duration : 1h 13mn
Bit rate mode : Variable
Bit rate : 156 Kbps
Channel(s) : 2 channels
Channel positions : Front: L R
Sampling rate : 48.0 KHz
Compression mode : Lossy
Stream size : 82.4 MiB (8%)
Title : Stereo
Language : English
Encoded date : UTC 2036-02-06 06:28:16
Tagged date : UTC 2036-02-06 06:28:16
Text
ID : 3
Format : Apple text
Codec ID : text
Duration : 1h 13mn
Bit rate mode : Constant
Bit rate : 0
Stream size : 138 Bytes (0%)
Language : English
Encoded date : UTC 2036-02-06 06:28:16
Tagged date : UTC 2036-02-06 06:28:16
Формат: MP4
Видео кодек: H.264
Аудио кодек: AAC
Видео: AVC, 1024x576, 16:9, 25.000 fps, ~ 1847 Kbps
Аудио: AAC, 48.0 KHz, ~ 160.0 Kbps, 2 channels

Скриншоты

[teatrix.ru].t13295.torrent 
Торрент: Зарегистрирован [ 2016-01-22 01:35 ] · 7DDF48026BAB341C1701311188D6DFF1C2700E00

Скачать .torrent

Скачать

42 KB

Статус: проверено
Скачан: 0 раз
Размер: 1.03 GB
terms.php



Быстрый ответ

Имя:

      
Для отправки сообщений необходимо включить JavaScript
Показать сообщения:    

Текущее время: 10-Дек 09:55

Часовой пояс: UTC + 3


Вы можете начинать темы
Вы можете отвечать на сообщения
Вы не можете редактировать свои сообщения
Вы не можете удалять свои сообщения
Вы не можете голосовать в опросах
Вы не можете прикреплять файлы к сообщениям
Вы можете скачивать файлы