Fremantle Home Entertainment - The New Me Workout [2015, H.264, WEBRip, ENG] (Видеоурок)


Статистика раздачи [Обновить пиров]
Размер:  1.05 GB   |    Зарегистрирован:  10 месяцев 17 дней   |    Скачан:  0 раз

Полного источника не было: Никогда

 
   
 
 
 

[Цитировать]

The New Me Workout- -Производитель: Fremantle Home Entertainment
Тип раздаваемого материала: Видеоурок
Автор: Rebecca Wheatley
Продолжительность: 01:16:18
Сайт производителя: www.amazon.co.uk/The-New-Me-Workout-DVD/dp/B000VDQS6Q
Год выпуска: 2015
Язык: Английский
Перевод: Отсутствует
Описание: Это является не только тренировка но и всей жизни. Привет, меня Ребекка правительство Бермудских островов. Возможно, вы не признать меня, но я был Эми в приемной в жертв. Это было 12 камень назад, и когда я был размер 32! Всего за 27 месяцев у меня упала половину моего веса тела и стать размер 12/14, похудение мирового пищевого плана и осуществление впервые. Сейчас, - это часть моей жизни, и я - новый мне, мы вместе в DVD-диска, вы можете перемещать, сжигать жир и помогут вам чувствовать себя лучше.-This is not just a workout but an entire lifestyle change. Hi I'm Rebecca Wheatley. You may not recognise me but I was Amy the receptionist in Casualty. That was 12 stone ago and back when I was a size 32! In just 27 months I've dropped half my body weight and become a size 12/14 by following Slimming World's eating plan and taking up exercise for the first time ever. Now that exercise is part of my life and I'm a new me, we've put together this workout DVD which will get you moving, burn fat and help you feel great.-
-

Media Info

General
Complete name : The New Me Workout.mp4
Format : MPEG-4
Format profile : Base Media / Version 2
Codec ID : mp42
File size : 915 MiB
Duration : 1h 5mn
Overall bit rate mode : Variable
Overall bit rate : 1 963 Kbps
Encoded date : UTC 2036-02-06 06:28:16
Tagged date : UTC 2036-02-06 06:28:16
Writing application : HandBrake 0.10.2 2015060900
Video
ID : 1
Format : AVC
Format/Info : Advanced Video Codec
Format profile : Main@L4.0
Format settings, CABAC : Yes
Format settings, ReFrames : 4 frames
Codec ID : avc1
Codec ID/Info : Advanced Video Coding
Duration : 1h 5mn
Bit rate : 1 797 Kbps
Width : 1024 pixels
Height : 572 pixels
Display aspect ratio : 16:9
Frame rate mode : Constant
Frame rate : 25.000 fps
Color space : YUV
Chroma subsampling : 4:2:0
Bit depth : 8 bits
Scan type : Progressive
Bits/(Pixel*Frame) : 0.175
Stream size : 837 MiB (92%)
Writing library : x264 core 142 r2479 dd79a61
Encoded date : UTC 2036-02-06 06:28:16
Tagged date : UTC 2036-02-06 06:28:16
Color primaries : BT.470-6 System B, BT.470-6 System G, BT.601-6 625, BT.1358 625, BT.1700 625 PAL, BT.1700 625 SECAM
Transfer characteristics : BT.709-5, BT.1361
Matrix coefficients : BT.601-6 525, BT.1358 525, BT.1700 NTSC, SMPTE 170M
Audio
ID : 2
Format : AAC
Format/Info : Advanced Audio Codec
Format profile : LC
Codec ID : 40
Duration : 1h 5mn
Bit rate mode : Variable
Bit rate : 160 Kbps
Channel(s) : 2 channels
Channel positions : Front: L R
Sampling rate : 48.0 KHz
Compression mode : Lossy
Stream size : 74.7 MiB (8%)
Title : Stereo
Language : English
Encoded date : UTC 2036-02-06 06:28:16
Tagged date : UTC 2036-02-06 06:28:16
Text
ID : 3
Format : Apple text
Codec ID : text
Duration : 1h 5mn
Bit rate mode : Constant
Bit rate : 0
Stream size : 184 Bytes (0%)
Language : English
Encoded date : UTC 2036-02-06 06:28:16
Tagged date : UTC 2036-02-06 06:28:16
Формат: MP4
Видео кодек: H.264
Аудио кодек: AAC
Видео: AVC, 1024x572, 16:9, 25.000 fps, ~ 1797 Kbps
Аудио: AAC, 48.0 KHz, ~ 130.0 Kbps, 2 channels

Скриншоты

[teatrix.ru].t13296.torrent 
Торрент: Зарегистрирован [ 2016-01-22 01:35 ] · ECB4A7A5F4B6C5AD24F3A09144A931B8DC3AD338

Скачать .torrent

Скачать

42 KB

Статус: проверено
Скачан: 0 раз
Размер: 1.05 GB
terms.php



Быстрый ответ

Имя:

      
Для отправки сообщений необходимо включить JavaScript
Показать сообщения:    

Текущее время: 08-Дек 03:14

Часовой пояс: UTC + 3


Вы можете начинать темы
Вы можете отвечать на сообщения
Вы не можете редактировать свои сообщения
Вы не можете удалять свои сообщения
Вы не можете голосовать в опросах
Вы не можете прикреплять файлы к сообщениям
Вы можете скачивать файлы