2entertain - Cream Ibiza Workout [2009, H.264, WEBRip, ENG] (Видеоурок)


Статистика раздачи [Обновить пиров]
Размер:  875 MB   |    Зарегистрирован:  10 месяцев 12 дней   |    Скачан:  0 раз

Полного источника не было: Никогда

 
   
 
 
 

[Цитировать]

Cream Ibiza Workout
Год выпуска: 2009
Производитель: 2entertain
Сайт производителя: www.amazon.co.uk/Cream-Ibiza-Workout-DVD/dp/B002KSA4GU
Автор: Bingo Wings
Продолжительность: 61 m
Тип раздаваемого материала: Видеоурок
Язык: Английский
Описание: В мире имя в клубы, сливки, объединяет все дух и энергию, чтобы новый, перекачивания тренировки с перемещается, каждый из начинающих с аэробным наркоман может обрабатывать с легкостью!
На живописном склоне горы место на острове Ибица, всемирно известный композитор, мягкий, принимает к вам серию ярких, эффектный и стимулирование деятельности перемещается в то время как вы канавку, чтобы ваш любимый клуб хиты. Для фантастическое сочетание house, club Classics и насосных гимнов от (, исправь свою жизнь радостью, Calvin Harris, T-empo и многое другое. В борьбе с, танцы, Сжигатель жира и ног, давайте дадим шанс другой партии и Tums разделы работы на фитнес, полупрозрачная и потеря в весе, в то время как вы забудете о том, что вы даже. С помощью простых пикапа танцевальные движения и что интересных крем Ибица Vibe, вы не сможете сидеть, как ни пытайтесь.-The world’s greatest name in clubbing, Cream, brings all the spirit and energy to a brand new, pumping workout with moves that everyone from novice to aerobic addict can handle with ease!
On a beautiful mountainside venue in Ibiza, world renowned choreographer, Supple, takes you through a series of funky, edgy and invigorating moves whilst you groove to your favourite club hits. Moving along to a fantastic mix of house, club classics and pumping anthems from Pitbull, Livin’ Joy, Calvin Harris, T-empo and much more. The Combat, Dance Fit, Fat Burner and Legs, Bums & Tums sections get to work on your fitness, toning and weight loss – while you’ll forget you’re even working out. With easy-to-pick-up dance moves and that exciting Cream Ibiza vibe, you won't be able to sit still, no matter how hard you try.--Файлы примеров: отсутствуют
Формат видео: MP4
Видео: AVC, 1024x576, 16:9, 25.000 fps, ~ 1818 Kbps
Аудио: AAC, 48.0 KHz, ~ 160.0 Kbps, 2 channels

Media Info

General
Complete name : 03.Bums, Legs and Tums.mp4
Format : MPEG-4
Format profile : Base Media / Version 2
Codec ID : mp42
File size : 148 MiB
Duration : 10mn 24s
Overall bit rate mode : Variable
Overall bit rate : 1 983 Kbps
Encoded date : UTC 2036-02-06 06:28:16
Tagged date : UTC 2036-02-06 06:28:16
Writing application : HandBrake 0.10.2 2015060900
Video
ID : 1
Format : AVC
Format/Info : Advanced Video Codec
Format profile : Main@L4.0
Format settings, CABAC : Yes
Format settings, ReFrames : 4 frames
Codec ID : avc1
Codec ID/Info : Advanced Video Coding
Duration : 10mn 24s
Bit rate : 1 818 Kbps
Width : 1024 pixels
Height : 576 pixels
Display aspect ratio : 16:9
Frame rate mode : Constant
Frame rate : 25.000 fps
Standard : PAL
Color space : YUV
Chroma subsampling : 4:2:0
Bit depth : 8 bits
Scan type : Progressive
Bits/(Pixel*Frame) : 0.175
Stream size : 135 MiB (92%)
Writing library : x264 core 142 r2479 dd79a61
Audio
ID : 2
Format : AAC
Format/Info : Advanced Audio Codec
Format profile : LC
Codec ID : 40
Duration : 10mn 24s
Bit rate mode : Variable
Bit rate : 160 Kbps
Channel(s) : 2 channels
Channel positions : Front: L R
Sampling rate : 48.0 KHz
Compression mode : Lossy
Stream size : 11.9 MiB (8%)
Title : Stereo
Language : English
Encoded date : UTC 2036-02-06 06:28:16
Tagged date : UTC 2036-02-06 06:28:16
Text
ID : 3
Format : Apple text
Codec ID : text
Duration : 10mn 24s
Bit rate : 0
Stream size : 23.0 Bytes (0%)
Language : English
Encoded date : UTC 2036-02-06 06:28:16
Tagged date : UTC 2036-02-06 06:28:16

Скриншоты

[teatrix.ru].t13304.torrent 
Торрент: Зарегистрирован [ 2016-01-22 01:35 ] · 382994D9B27C71061499F6E663EC5AC2C5F419B5

Скачать .torrent

Скачать

35 KB

Статус: проверено
Скачан: 0 раз
Размер: 875 MB
terms.php



Быстрый ответ

Имя:

      
Для отправки сообщений необходимо включить JavaScript
Показать сообщения:    

Текущее время: 03-Дек 14:39

Часовой пояс: UTC + 3


Вы можете начинать темы
Вы можете отвечать на сообщения
Вы не можете редактировать свои сообщения
Вы не можете удалять свои сообщения
Вы не можете голосовать в опросах
Вы не можете прикреплять файлы к сообщениям
Вы можете скачивать файлы