BarreAmped - BarreAmped Bootcamp [2015, H.264, WEBRip, ENG] (Видеоурок)


Статистика раздачи [Обновить пиров]
Размер:  1.09 GB   |    Зарегистрирован:  10 месяцев 19 дней   |    Скачан:  0 раз
Сидов:  1  [  0 KB/s  ]   Личеров:  1  [  0 KB/s  ]   Подробная статистика пиров
 
   
 
 
 

[Цитировать]

BarreAmped Bootcamp
Год выпуска: 2015
Производитель: BarreAmped
Сайт производителя: www.amazon.com/BarreAmped-Bootcamp-Suzanne-Bowen/dp/B00GVHA04C
Автор: Suzanne Bowen
Продолжительность: 80 min
Тип раздаваемого материала: Видеоурок
Язык: Английский
Описание: BarreAmped Boot Camp помогла сотням клиентов. во всем мире сжечь жир и высовываться в классическом режиме Барре в сочетании с низкой результативности, наказания кардио интервалов. Сюзанн Боуэн, создателя BarreAmped, приводит к вам через сложную, но практические тренировки все сегменты, которые можно сделать самостоятельно, смешанных и соответствие или все вместе на одной невероятной BarreAmped Boot Camp Fat Blast! Вы быстро быть "стряхивая изменения" с этим!-BarreAmped Boot Camp has helped hundreds of clients worldwide burn fat and lean out with classic barre combined with low impact, non-punishing cardio intervals. Suzanne Bowen, creator of BarreAmped, leads you through challenging but doable workout segments that can be done by themselves, mixed and matched, or all together for one incredible BarreAmped Boot Camp Fat Blast! You will quickly be "shaking to change" with this one!

Содержание

Warm Up 3.05
Boot Camp Arms 10.47
Boot Camp Thighs 14.53
Boot Camp Seat 13.34
Boot Camp Core 17.19
Stretch 10.31
Introduction 2.24
Tutorial 4.50
Файлы примеров: отсутствуют
Формат видео: MP4
Видео: AVC, 704x576, 16:9, 25.000 fps, ~ 1850 Kbps
Аудио: AAC, 48.0 KHz, ~ 160.0 Kbps, 2 channels

Media Info

General
Complete name : 05.Boot Camp Core.mp4
Format : MPEG-4
Format profile : Base Media / Version 2
Codec ID : mp42
File size : 250 MiB
Duration : 17mn 19s
Overall bit rate mode : Variable
Overall bit rate : 2 016 Kbps
Encoded date : UTC 2036-02-06 06:28:16
Tagged date : UTC 2036-02-06 06:28:16
Writing application : HandBrake 0.10.2 2015060900
Video
ID : 1
Format : AVC
Format/Info : Advanced Video Codec
Format profile : Main@L4.0
Format settings, CABAC : Yes
Format settings, ReFrames : 4 frames
Codec ID : avc1
Codec ID/Info : Advanced Video Coding
Duration : 17mn 19s
Bit rate : 1 850 Kbps
Width : 704 pixels
Height : 576 pixels
Display aspect ratio : 16:9
Frame rate mode : Constant
Frame rate : 25.000 fps
Standard : PAL
Color space : YUV
Chroma subsampling : 4:2:0
Bit depth : 8 bits
Scan type : Progressive
Bits/(Pixel*Frame) : 0.182
Stream size : 229 MiB (92%)
Writing library : x264 core 142 r2479 dd79a61
Encoded date : UTC 2036-02-06 06:28:16
Tagged date : UTC 2036-02-06 06:28:16
Audio
ID : 2
Format : AAC
Format/Info : Advanced Audio Codec
Format profile : LC
Codec ID : 40
Duration : 17mn 19s
Bit rate mode : Variable
Bit rate : 160 Kbps
Channel(s) : 2 channels
Channel positions : Front: L R
Sampling rate : 48.0 KHz
Compression mode : Lossy
Stream size : 19.9 MiB (8%)
Title : Stereo
Language : English
Encoded date : UTC 2036-02-06 06:28:16
Tagged date : UTC 2036-02-06 06:28:16
Text
ID : 3
Format : Apple text
Codec ID : text
Duration : 17mn 19s
Bit rate : 0
Stream size : 23.0 Bytes (0%)
Language : English
Encoded date : UTC 2036-02-06 06:28:16
Tagged date : UTC 2036-02-06 06:28:16

Скриншоты

[teatrix.ru].t13308.torrent 
Торрент: Зарегистрирован [ 2016-01-22 01:35 ] · 3CA6F732E03CF1F4F011D3B38C2B9CFDF3BE6349

Скачать .torrent

Скачать

44 KB

Статус: проверено
Скачан: 0 раз
Размер: 1.09 GB
terms.php



Быстрый ответ

Имя:

      
Для отправки сообщений необходимо включить JavaScript
Показать сообщения:    

Текущее время: 11-Дек 01:29

Часовой пояс: UTC + 3


Вы можете начинать темы
Вы можете отвечать на сообщения
Вы не можете редактировать свои сообщения
Вы не можете удалять свои сообщения
Вы не можете голосовать в опросах
Вы не можете прикреплять файлы к сообщениям
Вы можете скачивать файлы