The Yoga Collective - Birds of a Feather Twist Together [2015, H.264, WEBRip, ENG] (Видеоурок)


Статистика раздачи [Обновить пиров]
Размер:  870 MB   |    Зарегистрирован:  10 месяцев 13 дней   |    Скачан:  0 раз

Полного источника не было: Никогда

Личеров:  1  [  0 KB/s  ]   Подробная статистика пиров
 
   
 
 
 

[Цитировать]

Birds of a Feather Twist Together- -Производитель: The Yoga Collective
Тип раздаваемого материала: Видеоурок
Автор: Shayna Hiller
Продолжительность: 60mn 01s
Сайт производителя: www.theyogacollective.com
Год выпуска: 2015
Язык: Английский
Перевод: Отсутствует
Описание: Этот класс вы можете через традиционные sun приветствует которая будет разогрева тела для разнообразных постоянный, скручивание и балансировки нагрузки представляет. Пиковая представляет: Eagle, Кроу и полукруглая полость . После того, как класса, вы должны почувствовать детоксикации, подается питание, strong, и приятной.-This class will get you flowing through traditional sun salutes which will warm up the body for a variety of standing, twisting and balancing poses. Peak Poses: Eagle, Crow and Half-Moon. After the class, you should feel detoxified, energized, strong, and relaxed.--Level: All Levels
Style: Vinyasa
Focus: Balancing Poses, Twists, Detox, Shoulders, Hips, Hamstrings-
-

Media Info

General
Format : MPEG-4
Format profile : Base Media / Version 2
Codec ID : mp42
File size : 433 MiB
Duration : 30mn 28s
Overall bit rate mode : Variable
Overall bit rate : 1 985 Kbps
Encoded date : UTC 2036-02-06 06:28:16
Tagged date : UTC 2036-02-06 06:28:16
Writing application : HandBrake 0.10.2 2015060900
Video
ID : 1
Format : AVC
Format/Info : Advanced Video Codec
Format profile : Main@L4.0
Format settings, CABAC : Yes
Format settings, ReFrames : 4 frames
Codec ID : avc1
Codec ID/Info : Advanced Video Coding
Duration : 30mn 28s
Bit rate : 1 818 Kbps
Width : 1 280 pixels
Height : 720 pixels
Display aspect ratio : 16:9
Frame rate mode : Variable
Frame rate : 23.976 fps
Minimum frame rate : 23.974 fps
Maximum frame rate : 23.981 fps
Color space : YUV
Chroma subsampling : 4:2:0
Bit depth : 8 bits
Scan type : Progressive
Bits/(Pixel*Frame) : 0.082
Stream size : 396 MiB (92%)
Encoded date : UTC 2036-02-06 06:28:16
Tagged date : UTC 2036-02-06 06:28:16
Color primaries : BT.709-5, BT.1361, IEC 61966-2-4, SMPTE RP177
Transfer characteristics : BT.709-5, BT.1361
Matrix coefficients : BT.709-5, BT.1361, IEC 61966-2-4 709, SMPTE RP177
Audio
ID : 2
Format : AAC
Format/Info : Advanced Audio Codec
Format profile : LC
Codec ID : 40
Duration : 30mn 28s
Bit rate mode : Variable
Bit rate : 160 Kbps
Channel(s) : 2 channels
Channel positions : Front: L R
Sampling rate : 48.0 KHz
Compression mode : Lossy
Stream size : 34.9 MiB (8%)
Title : Stereo
Encoded date : UTC 2036-02-06 06:28:16
Tagged date : UTC 2036-02-06 06:28:16
Формат: MP4
Видео кодек: H.264
Аудио кодек: AAC
Видео: AVC, 1280x720, 16:9, 25.000 fps, ~ 1818 Kbps
Аудио: AAC, 48.0 KHz, ~ 130.0 Kbps, 2 channels

Скриншоты

[teatrix.ru].t13309.torrent 
Торрент: Зарегистрирован [ 2016-01-22 01:35 ] · 4F8806D2C779AC6751A5102D2AC9ADDA440E2701

Скачать .torrent

Скачать

34 KB

Статус: проверено
Скачан: 0 раз
Размер: 870 MB
terms.php



Быстрый ответ

Имя:

      
Для отправки сообщений необходимо включить JavaScript
Показать сообщения:    

Текущее время: 04-Дек 13:17

Часовой пояс: UTC + 3


Вы можете начинать темы
Вы можете отвечать на сообщения
Вы не можете редактировать свои сообщения
Вы не можете удалять свои сообщения
Вы не можете голосовать в опросах
Вы не можете прикреплять файлы к сообщениям
Вы можете скачивать файлы