Jillian Michaels - Killer Body [2015, США, фитнес, DVDRip, ENG] (Видеоурок)


Статистика раздачи [Обновить пиров]
Размер:  1.46 GB   |    Зарегистрирован:  10 месяцев 13 дней   |    Скачан:  2 раза
Сидов:  2  [  0 KB/s  ]   Личеров:  1  [  0 KB/s  ]   Подробная статистика пиров
 
   
 
 
 

[Цитировать]

Jillian Michaels - Killer Body
- Страна: США
Год выпуска: 2015
Тематика: фитнес
Тип раздаваемого материала: Видеоурок
Продолжительность: 01:42:59
Язык: Английский
Перевод: Отсутствует-Описание: Если вы хотите измениться, не просто измениться, - а ,,убийственно" измениться - этот новый диск Джиллиан для вас! Вы бросите вызов каждой части тела, работая с каждой группой мышц и добиваясь максимального результата! ,,Убийственное тело"-это большое обещание и эта тренировка помогает его исполнить.
Диск разделен на 3 невероятные 30-ти минутные тренировки, сфокусированные на разных частях тела: бедра и ягодицы, мышцы брюшного пресса, подтянутые плечи (бицепсы и трицепсы). Делайте каждую часть дважды в неделю, чередуя эти три тренировки и отдыхайте в воскресенье. Как и обычно, Джиллиан предлагает модификации для каждого движения, чтобы вы могли постепенно повышать свой уровень подготовки.
Пора совершить эти перемены! Начните работать с ,,Убийственным телом" Джиллиан Майклз и получите стройное и сексуальное тело, о котором вы всегда мечтали!-Уровень: Продвинутый
-Качество: DVDRip
Формат: AVI
Видео: 720x400 (1.80:1), 23.976 fps, XviD ~1822 kbps, 0.26 bit/pixel
Аудио: 48 kHz, AC3, 2/0 (L,R) ch, ~192 kbps
-

Скриншоты

00:33:50 + 00:36:26 + 00:32:43


Дополнительно


Аннотация на английском языке
If you're looking to make a change, and not just any change - a killer change - Jillian Michaels Killer Body is the DVD for you. You will challenge every part of your body by working every muscle group to give you maximum results. 'Killer Body' is a big promise, and this workout delivers.
Killer Body is broken down into three incredible 30-minute workouts, each focusing on a different section of your body - buns and thighs, rock hard abs, and lean toned shoulders, biceps and triceps. Complete each workout twice a week, alternating between the three, and take a rest day on Sunday. As always, Jillian offers basic and advanced modifications for each move so you can scale to your level of fitness.
It's time to make that change. Get started with Jillian Michaels Killer Body today to get the lean and sexy body you've always wanted!

Отчет MI

GeneralComplete name : Killer Body_1 Uper body.aviFormat : AVIFormat/Info : Audio Video InterleaveFile size : 490 MiBDuration : 33mn 49sOverall bit rate : 2 024 KbpsWriting application : VirtualDubMod 1.5.10.3Writing library : VirtualDubMod build 2550/release
VideoID : 0Format : MPEG-4 VisualFormat profile : Advanced Simple@L5Format settings, BVOP : 1Format settings, QPel : NoFormat settings, GMC : No warppointsFormat settings, Matrix : CustomCodec ID : XVIDCodec ID/Hint : XviDDuration : 33mn 49sBit rate : 1 823 KbpsWidth : 720 pixelsHeight : 400 pixelsDisplay aspect ratio : 16:9Frame rate : 23.976 fpsColor space : YUVChroma subsampling : 4:2:0Bit depth : 8 bitsScan type : ProgressiveCompression mode : LossyBits/(Pixel*Frame) : 0.264Stream size : 441 MiB (90%)Writing library : XviD 73
AudioID : 1Format : AC-3Format/Info : Audio Coding 3Mode extension : CM (complete main)Format settings, Endianness : BigCodec ID : 2000Duration : 33mn 42sBit rate mode : ConstantBit rate : 192 KbpsChannel count : 2 channelsChannel positions : Front: L RSampling rate : 48.0 KHzBit depth : 16 bitsCompression mode : LossyStream size : 46.3 MiB (9%)Alignment : Split accross interleavesInterleave, duration : 42 ms (1.00 video frame)Interleave, preload duration : 500 ms
[teatrix.ru].t13320.torrent 
Торрент: Зарегистрирован [ 2016-01-22 01:35 ] · 1E4E76341EF03E75C7C55123909791B561B46993

Скачать .torrent

Скачать

15 KB

Статус: проверено
Скачан: 2 раз
Размер: 1.46 GB
terms.php



Быстрый ответ

Имя:

      
Для отправки сообщений необходимо включить JavaScript
Показать сообщения:    

Текущее время: 04-Дек 13:15

Часовой пояс: UTC + 3


Вы можете начинать темы
Вы можете отвечать на сообщения
Вы не можете редактировать свои сообщения
Вы не можете удалять свои сообщения
Вы не можете голосовать в опросах
Вы не можете прикреплять файлы к сообщениям
Вы можете скачивать файлы