Татьяна Рогатина - Фитнес для проблемных зон [2010 г., фитнес, DVDRip, RUS] (Видеоурок)


Статистика раздачи [Обновить пиров]
Размер:  1.33 GB   |    Зарегистрирован:  10 месяцев 14 дней   |    Скачан:  2 раза
Сидов:  43  [  0 KB/s  ]   Личеров:  1  [  0 KB/s  ]   Подробная статистика пиров
 
   
 
 

[Цитировать]

Татьяна Рогатина - Фитнес для «проблемных» зон-
Страна: Россия, студия SovaFilm
Год выпуска: 2010
Продолжительность: 01:27:52
Языкд: Русский
-
Описание: Фитнес (от англ. fit – быть в хорошей форме) – это не только оздоровительная методика, с помощью которой вы можете изменить формы тела, его вес и надолго закрепить результат, но и новый позитивный подход к формированию себя и своей жизни. Это ваш путь к индивидуальному совершенству!-Часть 1 - Грудь, плечи, спина: В этой серии фильма о фитнесе представлен комплекс, состоящий из лучших упражнений для создания и совершенствования красоты ваших плеч, груди и спины. Это тот каркас, который поддерживает тело в прямом положении. Ваши плечи распрямляются, грудь поднимается... Это ваша новая осанка! Вам нравится?
Часть 2 - Талия и пресс: Цель: красивый живот, изящная талия! В данной части представлен комплекс, состоящий из лучших упражнений для совершенствования красоты и стройности вашей талии и пресса. Ваша талия достойна внимания! А теперь еще и восхищения.
Часть 3 - Ноги, бедра, ягодицы: Мы представляем вам уникальный фитнес-комплекс, состоящий из высокоэффективных упражнений для придания стройности и совершенствования красоты ваших ног, бедер и ягодиц. Наши упражнения помогут вам избавиться от лишнего жира, сделать ваше тело упругим, красивым и сексуальным!
Пусть фитнес станет неотъемлемой частью вашей жизни, подарит оптимистичное, радостное мировосприятие, веру в свои силы, стремление к созиданию, к победе и нацеленность на успех! Наш фильм поможет вам в этом!
-Качество: DVDRip
Формат: AVI
Видео #1: 640x352 (1.82:1), 25 fps, XviD ~1156 kbps, 0.20 bit/pixel - Грудь, плечи, спина
Видео #2: 640x352 (1.82:1), 25 fps, XviD ~2146 kbps, 0.38 bit/pixel - Талия и пресс
Видео #3: 640x352 (1.82:1), 25 fps, XviD ~1883 kbps, 0.33 bit/pixel - Ноги, бедра, ягодицы
Аудио: 48 kHz, MPEG Layer 3, 2 ch, ~128.00 kbps
Russian

Отчет MI

GeneralComplete name : T.Rogatina_Fitness.dlya.problem.zon_Olu6ka\03 Талия и пресс.aviFormat : AVIFormat/Info : Audio Video InterleaveFile size : 502 MiBDuration : 30mn 42sOverall bit rate : 2 287 KbpsMovie name : 0Writing application : FairUse Wizard
VideoID : 0Format : MPEG-4 VisualFormat profile : Advanced Simple@L5Format settings, BVOP : 1Format settings, QPel : NoFormat settings, GMC : No warppointsFormat settings, Matrix : Default (MPEG)Muxing mode : Packed bitstreamCodec ID : XVIDCodec ID/Hint : XviDDuration : 30mn 42sBit rate : 2 149 KbpsWidth : 640 pixelsHeight : 352 pixelsDisplay aspect ratio : 16:9Frame rate : 25.000 fpsColor space : YUVChroma subsampling : 4:2:0Bit depth : 8 bitsScan type : ProgressiveCompression mode : LossyBits/(Pixel*Frame) : 0.382Stream size : 472 MiB (94%)Writing library : XviD 1.2.0.dev47 (UTC 2006-11-01)
AudioID : 1Format : MPEG AudioFormat version : Version 1Format profile : Layer 3Mode : Joint stereoMode extension : MS StereoCodec ID : 55Codec ID/Hint : MP3Duration : 30mn 42sBit rate mode : ConstantBit rate : 128 KbpsChannel count : 2 channelsSampling rate : 48.0 KHzCompression mode : LossyStream size : 28.1 MiB (6%)Alignment : Aligned on interleavesInterleave, duration : 40 ms (1.00 video frame)Interleave, preload duration : 504 msWriting library : LAME3.97
[teatrix.ru].t13331.torrent 
Торрент: Зарегистрирован [ 2016-01-22 01:35 ] · 0AB1D6DA50B9BDDF45F2F291D11413B6DB69B901

Скачать .torrent

Скачать

14 KB

Статус: проверено
Скачан: 2 раз
Размер: 1.33 GB
terms.php



Быстрый ответ

Имя:

      
Для отправки сообщений необходимо включить JavaScript
Показать сообщения:    

Текущее время: 05-Дек 21:40

Часовой пояс: UTC + 3


Вы можете начинать темы
Вы можете отвечать на сообщения
Вы не можете редактировать свои сообщения
Вы не можете удалять свои сообщения
Вы не можете голосовать в опросах
Вы не можете прикреплять файлы к сообщениям
Вы можете скачивать файлы