Ритмическая гимнастика (Линичук и Бобрин) [1985, гимнастика, RUS] (Видеоурок)


Статистика раздачи [Обновить пиров]
Размер:  1.23 GB   |    Зарегистрирован:  10 месяцев 12 дней   |    Скачан:  1 раз

Полного источника не было: 1 месяц 27 дней

 
   
 
 
 

[Цитировать]

Ритмическая гимнастика (Линичук и Бобрин)

Страна: СССР
Тематика: Гимнастика
Тип раздаваемого материала: Видеоурок
Продолжительность: 00:45:13 (восстановленная); 00:45:00 (неурезанная); 00:30:00 (урезанная)
Год выпуска: 1985
Язык: Русский
Перевод: Не требуется
Описание: Пятый выпуск ритмики провели сразу два ведущих - Наталия Линичук и Игорь Бобрин. Это первый комплекс, в котором упражнения в положении стоя разделены на две части: разминка и основная часть. Выпуск был необычен тем, что упражнения выполняются не только в залах, как в предыдущих комплексах, а на природе (июль - август 1985 года). Не исключено, что летом 1986 или 1987 года был повтор. Более точные сведения появятся после детального изучения скана газеты "Правда" с программой передач (1975-1996). Съемки проходили во дворце спорта "Динамо", Измайловском лесопарке и на велотреке в Крылатском. Впервые звуковой ряд комплекса был представлен полностью композициями одного автора - Лиепиньша ("Твердый орешек" - разминка, "Твердый орешек 2" - основная часть, "Твердый орешек 2" (звук приглушен) - эпизод с разучиванием упражнений основной части, "Челнок" - беговая часть (после разминки), "Возрождение" - проверка пульса, заключительная часть, "Снова звезды" - начало, основная часть (первые два упражнения), упражнения сидя и лежа). В комплексе прозвучала песня в исполнении Дубинина и группы "Ритм" "Век двадцатый - век движения".
Доп. информация: Фрагменты с приветствием и разучиванием упражнений основной части обычно вырезали. Сейчас в интернете эти фрагменты чаще всего помещают после основной части, что нерационально (реже встречается вариант разучивания по частям - перед каждым упражнением). Здесь приведены два наиболее логичных варианта разучивания основной части - после заставки (вместе с приветствием) и после первого бега (отдельно от приветствия). Скорее всего (если смотреть по музыке), второй вариант является истинным.
В качестве сравнения приведен и урезанный вариант (версия на 31 минуту), но, в отличие от "классического" урезанного варианта, второй бег сохранен, а не заменен первым (соответственно, сохранены и титры в конце).
Что же насчет слов в окончании приветствия типа: "Подробно этот комплекс описан в еженедельнике "Говорит и показывает Москва". После разминки мы разучим самые сложные из основных упражнений", или что-то вроде этого - их найти так и не удалось.
Качество: VHSRip
Формат: WMV
Видео: WMV3, 640х480, 4:3, 1308 кбит/с, 25,000 кадр/с
Аудио: WMA2, 128 кбит/с, 2 канала, 44 кгц

Медиаинфо

Общее
Полное имя : F:\ГИМНАСТИКА\05-Линичук 2 восстановленная.wmv
Формат : Windows Media
Размер файла : 467 Мбайт
Продолжительность : 45 м.
Режим общего битрейта : Постоянный
Общий поток : 1445 Кбит/сек
Максимальный общий битрейт : 1452 Кбит/сек
Дата кодирования : UTC 2015-01-21 00:56:19.546
Application : Windows Movie Maker 2.1.4026.0
Видео
Идентификатор : 2
Формат : VC-1
Профиль формата : MP@ML
Идентификатор кодека : WMV3
Идентификатор кодека/Информация : Windows Media Video 9
Идентификатор кодека/Подсказка : WMV3
Описание кодека : Windows Media Video 9 - Professional
Продолжительность : 45 м.
Вид битрейта : Постоянный
Битрейт : 1309 Кбит/сек
Ширина : 640 пикселей
Высота : 480 пикселей
Соотношение сторон : 4:3
Частота кадров : 25,000 кадров/сек
Цветовое пространство : YUV
Субдискретизация насыщенности : 4:2:0
Битовая глубина : 8 бит
Тип развёртки : Прогрессивная
Метод сжатия : С потерями
Бит/(Пиксели*Кадры) : 0.170
Размер потока : 423 Мбайт (91%)
Язык : Russian
Аудио
Идентификатор : 1
Формат : WMA
Версия формата : Version 2
Идентификатор кодека : 161
Идентификатор кодека/Информация : Windows Media Audio
Описание кодека : Windows Media Audio 9.1 - 128 kbps, 44 kHz, stereo (A/V) 1-pass CBR
Продолжительность : 45 м.
Вид битрейта : Постоянный
Битрейт : 128 Кбит/сек
Каналы : 2 канала
Частота : 44,1 КГц
Битовая глубина : 16 бит
Размер потока : 41,4 Мбайт (9%)
Язык : Russian
Общее
Полное имя : ГИМНАСТИКА\05-Линичук 2*.wmv
Формат : Windows Media
Размер файла : 467 Мбайт (неурезанная), 320 Мбайт (урезанная)
Продолжительность : 45 м. (неурезанная), 30 м. (урезанная)
Режим общего битрейта : Постоянный
Общий поток : 1445 Кбит/сек
Максимальный общий битрейт : 1452 Кбит/сек
Дата кодирования : UTC 2015-01-21 00:56:19.546
Application : Windows Movie Maker 2.1.4026.0
Видео
Идентификатор : 2
Формат : VC-1
Профиль формата : MP@ML
Идентификатор кодека : WMV3
Идентификатор кодека/Информация : Windows Media Video 9
Идентификатор кодека/Подсказка : WMV3
Описание кодека : Windows Media Video 9 - Professional
Продолжительность : 45 м. (неурезанная), 30 м. (урезанная)
Вид битрейта : Постоянный
Битрейт : 1309 Кбит/сек
Ширина : 640 пикселей
Высота : 480 пикселей
Соотношение сторон : 4:3
Частота кадров : 25 кадров/сек
Цветовое пространство : YUV
Субдискретизация насыщенности : 4:2:0
Битовая глубина : 8 бит
Тип развертки : Прогрессивная
Метод сжатия : С потерями
Бит/(Пиксели*Кадры) : 0.170
Размер потока : 423 Мбайт (91%)
Язык : Русский
Аудио
Идентификатор : 1
Формат : WMA
Версия формата : Version 2
Идентификатор кодека : 161
Идентификатор кодека/Информация : Windows Media Audio
Описание кодека : Windows Media Audio 9.1 - 128 kbps, 44 kHz, stereo (A/V) 1-pass CBR
Продолжительность : 45 м. (неурезанная), 30 м. (урезанная)
Вид битрейта : Постоянный
Битрейт : 128 Кбит/сек
Каналы : 2 канала
Частота : 44,1 КГц
Битовая глубина : 16 бит
Размер потока : 41,4 Мбайт (9%)
Язык : Русский

Скриншоты

[teatrix.ru].t13333.torrent 
Торрент: Зарегистрирован [ 2016-01-22 01:35 ] · 407610632A7586867FDA41CF36147341E099927E

Скачать .torrent

Скачать

99 KB

Статус: проверено
Скачан: 1 раз
Размер: 1.23 GB
terms.php



Быстрый ответ

Имя:

      
Для отправки сообщений необходимо включить JavaScript
Показать сообщения:    

Текущее время: 04-Дек 00:54

Часовой пояс: UTC + 3


Вы можете начинать темы
Вы можете отвечать на сообщения
Вы не можете редактировать свои сообщения
Вы не можете удалять свои сообщения
Вы не можете голосовать в опросах
Вы не можете прикреплять файлы к сообщениям
Вы можете скачивать файлы