Beachbody INSANITY MAX:30 - Shaun T [2014, Фитнес, HDTVRip, ENG] (Видеоурок)


Статистика раздачи [Обновить пиров]
Размер:  5.27 GB   |    Зарегистрирован:  10 месяцев 13 дней   |    Скачан:  1 раз
Сидов:  3  [  0 KB/s  ]   Подробная статистика пиров
 
   
 
 

[Цитировать]

Beachbody INSANITY MAX:30 - Shaun T

Страна: США
Тематика: Фитнес
Продолжительность: 03:26:12
Год выпуска: 2014
Язык: Английский
Перевод: Отсутствует
Субтитры: Отсутствуют-Описание: Насколько тяжел Макс:30? Это полчаса чистой интенсивности, и, честно говоря, ваши шансы проделать этот путь с первого разу равны... нулю. Это действительно тяжело. Шон T провел месяцы, что бы найти способ, как это сделать, - создать "Maxing OUT"... И это работает!
Каждый раз, когда вы делаете MAX: 30 тренировки, вы делаете их как можно быстрее и как можно больше. Затем, когда ваши легкие чувствуют себя подобно наждачной бумаге и ваши мышцы молят о пощаде, берете перерыв, запишите время... и начинайте вновь, чтобы закончить тренировку. Первый раз, вы можете только сделать только 3 минуты ( и, поверьте мне, даже это будет достижение!). Это означает, что 3:00 - ваше время MAX OUT . В следующий раз попробуйте добавить к этому времени всего 30 секунд. Если вы можете сделать 30 секунд прогресса каждый день в течение 60 дней, в конце 60 дней, вы будете делать это всё в MAX 30 без перерывов. И когда это произойдет, поверьте мне, Вы будете чувствовать себя, Вы будете выглядеть как Freakin ' фитнес- бог.-Качество: HDTVRip
Формат: AVI
Видео: 720x400 (1.80:1), 23.976 fps, XviD build 73 ~1842 kbps avg, 0.27 bit/pixel
Аудио: 48 kHz, MPEG Layer 3, 2 ch, ~128.00 kbps

Дополнительно


Состав:
* 10 MAX30 оригинальных тренировок
* 2 deluxe: "Pulse" - recovery тренировка + "Ab Attack 10" - тренировка пресса
* 1 standalone (автономно) - "Sweat Fest" - Insanity 2009 года за 30 минут
В раздаче отсутствуют modifier-тренировки, то бишь облегченный вариант. Онли хардкор =) НО! "В самих видео, справа от Шона, девушка делает modifier"-How tough is MAX:30? It’s a half hour of pure intensity, and frankly, your chances of making it all the way through—at least at first—are pretty much…zero. It’s SO tough, Shaun T spent months JUST TO FIND A WAY TO GET YOU THROUGH IT.
That’s when he came up with the breakthrough he called "MAXING OUT…"
AND IT WORKS LIKE CRAZY
Every time you do a MAX:30 workout, you go as hard as you can for as long as you can. Then, when your lungs feel like sandpaper and your muscles are begging for mercy, that’s when you take a break, write down the time you MAXED OUT, and get right back in to finish your workout.
At first, you might only make it through 3 minutes (and believe me, even that will be an accomplishment). That means 3:00 is your MAX OUT time. Next time you do the workout, try to push that time just 30 seconds longer. If you can make 30 seconds of progress every day for 60 days, at the end of 60 days, you will make it all the way to MAX 30. And when that happens—trust me…you’re going to feel—and look—like a freakin’ fitness god.
Отчет MI">

Скриншоты Отчет MI


GeneralComplete name : Insanity - MAX 30 (2014)\Deluxe - Ab Attack 10.aviFormat : AVIFormat/Info : Audio Video InterleaveFile size : 150 MiBDuration : 10mn 33sOverall bit rate : 1 980 Kbps
VideoID : 0Format : MPEG-4 VisualFormat profile : Advanced Simple@L5Format settings, BVOP : 1Format settings, QPel : NoFormat settings, GMC : No warppointsFormat settings, Matrix : CustomCodec ID : XVIDCodec ID/Hint : XviDDuration : 10mn 33sBit rate : 1 843 KbpsWidth : 720 pixelsHeight : 400 pixelsDisplay aspect ratio : 16:9Frame rate : 23.976 fpsColor space : YUVChroma subsampling : 4:2:0Bit depth : 8 bitsScan type : ProgressiveCompression mode : LossyBits/(Pixel*Frame) : 0.267Stream size : 139 MiB (93%)Writing library : XviD 73
AudioID : 1Format : MPEG AudioFormat version : Version 1Format profile : Layer 3Codec ID : 55Codec ID/Hint : MP3Duration : 10mn 33sBit rate mode : ConstantBit rate : 128 KbpsChannel count : 2 channelsSampling rate : 48.0 KHzCompression mode : LossyStream size : 9.67 MiB (6%)Alignment : Aligned on interleavesInterleave, duration : 42 ms (1.00 video frame)Interleave, preload duration : 504 msWriting library : LAME3.99rEncoding settings : -m s -V 4 -q 2 -lowpass 17 -b 128
[teatrix.ru].t13335.torrent 
Торрент: Зарегистрирован [ 2016-01-22 01:35 ] · 4DD7B5F80BDA2305FCF7F802D0078530852FF89E

Скачать .torrent

Скачать

15 KB

Статус: проверено
Скачан: 1 раз
Размер: 5.27 GB
terms.php



Быстрый ответ

Имя:

      
Для отправки сообщений необходимо включить JavaScript
Показать сообщения:    

Текущее время: 04-Дек 17:19

Часовой пояс: UTC + 3


Вы можете начинать темы
Вы можете отвечать на сообщения
Вы не можете редактировать свои сообщения
Вы не можете удалять свои сообщения
Вы не можете голосовать в опросах
Вы не можете прикреплять файлы к сообщениям
Вы можете скачивать файлы