Tracy Anderson - Cardio Dance For Beginners [2014, фитнес, DVDRip, ENG] (Видеоурок)


Статистика раздачи [Обновить пиров]
Размер:  1.26 GB   |    Зарегистрирован:  10 месяцев 13 дней   |    Скачан:  1 раз

Полного источника не было: 1 месяц 28 дней

 
   
 
 
 

[Цитировать]

Tracy Anderson - Cardio Dance For Beginners
Страна: США
Тематика: фитнес
Тип раздаваемого материала: Видеоурок
Продолжительность: 00:66:00
Год выпуска: 2014
Язык: Английский
Перевод: Отсутствует
Описание: Новая кардио-тренировка от Трейси Андерсон (Tracy Anderson), ориентированная на новичков. Тренировка состоит из четырех 15-минутных сегментов с постепенно увеличивающейся сложностью (каждый последующий сегмент по хореографии сложнее предыдущего).
Качество: DVDRip
Формат: AVI
Видео кодек: XviD, 720х416, 2439 - 2685 Kbps, 23.976 fps
Аудио кодек: AC3, 192 Kbps, 48.0 KHz, 2ch

Скриншоты и техническая информацияCardio Dance for Beginners_01Отчет Media Info

General
Complete name : C:\Users\Ksenia\Downloads\Tracy Anderson Cardio Dance for Beginners\Cardio Dance for Beginners_01.avi
Format : AVI
Format/Info : Audio Video Interleave
File size : 349 MiB
Duration : 16mn 55s
Overall bit rate : 2 884 Kbps
Writing application : VirtualDubMod 1.5.4.1 (build 2178/release)
Writing library : VirtualDubMod build 2178/release
Video
ID : 0
Format : MPEG-4 Visual
Format profile : Advanced Simple@L5
Format settings, BVOP : No
Format settings, QPel : No
Format settings, GMC : No warppoints
Format settings, Matrix : Custom
Codec ID : XVID
Codec ID/Hint : XviD
Duration : 16mn 55s
Bit rate : 2 685 Kbps
Width : 720 pixels
Height : 416 pixels
Display aspect ratio : 1.731
Frame rate : 23.976 fps
Color space : YUV
Chroma subsampling : 4:2:0
Bit depth : 8 bits
Scan type : Progressive
Compression mode : Lossy
Bits/(Pixel*Frame) : 0.374
Stream size : 325 MiB (93%)
Writing library : XviD 64
Audio
ID : 1
Format : AC-3
Format/Info : Audio Coding 3
Mode extension : CM (complete main)
Format settings, Endianness : Big
Codec ID : 2000
Duration : 16mn 55s
Bit rate mode : Constant
Bit rate : 192 Kbps
Channel count : 2 channels
Channel positions : Front: L R
Sampling rate : 48.0 KHz
Bit depth : 16 bits
Compression mode : Lossy
Stream size : 23.2 MiB (7%)
Alignment : Split accross interleaves
Interleave, duration : 96 ms (2.30 video frames)
Interleave, preload duration : 96 ms

Скриншоты

Cardio Dance for Beginners_02Отчет Media Info

General
Complete name : C:\Users\Ksenia\Downloads\Tracy Anderson Cardio Dance for Beginners\Cardio Dance for Beginners_02.avi
Format : AVI
Format/Info : Audio Video Interleave
File size : 310 MiB
Duration : 15mn 42s
Overall bit rate : 2 762 Kbps
Writing application : VirtualDubMod 1.5.4.1 (build 2178/release)
Writing library : VirtualDubMod build 2178/release
Video
ID : 0
Format : MPEG-4 Visual
Format profile : Advanced Simple@L5
Format settings, BVOP : No
Format settings, QPel : No
Format settings, GMC : No warppoints
Format settings, Matrix : Custom
Codec ID : XVID
Codec ID/Hint : XviD
Duration : 15mn 42s
Bit rate : 2 563 Kbps
Width : 720 pixels
Height : 416 pixels
Display aspect ratio : 1.731
Frame rate : 23.976 fps
Color space : YUV
Chroma subsampling : 4:2:0
Bit depth : 8 bits
Scan type : Progressive
Compression mode : Lossy
Bits/(Pixel*Frame) : 0.357
Stream size : 288 MiB (93%)
Writing library : XviD 64
Audio
ID : 1
Format : AC-3
Format/Info : Audio Coding 3
Mode extension : CM (complete main)
Format settings, Endianness : Big
Codec ID : 2000
Duration : 15mn 42s
Bit rate mode : Constant
Bit rate : 192 Kbps
Channel count : 2 channels
Channel positions : Front: L R
Sampling rate : 48.0 KHz
Bit depth : 16 bits
Compression mode : Lossy
Stream size : 21.6 MiB (7%)
Alignment : Split accross interleaves
Interleave, duration : 96 ms (2.30 video frames)
Interleave, preload duration : 96 ms

Скриншоты

Cardio Dance for Beginners_03Отчет Media Info

General
Complete name : C:\Users\Ksenia\Downloads\Tracy Anderson Cardio Dance for Beginners\Cardio Dance for Beginners_03.avi
Format : AVI
Format/Info : Audio Video Interleave
File size : 297 MiB
Duration : 15mn 44s
Overall bit rate : 2 640 Kbps
Writing application : VirtualDubMod 1.5.4.1 (build 2178/release)
Writing library : VirtualDubMod build 2178/release
Video
ID : 0
Format : MPEG-4 Visual
Format profile : Advanced Simple@L5
Format settings, BVOP : No
Format settings, QPel : No
Format settings, GMC : No warppoints
Format settings, Matrix : Custom
Codec ID : XVID
Codec ID/Hint : XviD
Duration : 15mn 44s
Bit rate : 2 442 Kbps
Width : 720 pixels
Height : 416 pixels
Display aspect ratio : 1.731
Frame rate : 23.976 fps
Color space : YUV
Chroma subsampling : 4:2:0
Bit depth : 8 bits
Scan type : Progressive
Compression mode : Lossy
Bits/(Pixel*Frame) : 0.340
Stream size : 275 MiB (92%)
Writing library : XviD 64
Audio
ID : 1
Format : AC-3
Format/Info : Audio Coding 3
Mode extension : CM (complete main)
Format settings, Endianness : Big
Codec ID : 2000
Duration : 15mn 44s
Bit rate mode : Constant
Bit rate : 192 Kbps
Channel count : 2 channels
Channel positions : Front: L R
Sampling rate : 48.0 KHz
Bit depth : 16 bits
Compression mode : Lossy
Stream size : 21.6 MiB (7%)
Alignment : Split accross interleaves
Interleave, duration : 96 ms (2.30 video frames)
Interleave, preload duration : 96 ms

Скриншоты

Cardio Dance for Beginners_04Отчет Media Info

General
Complete name : C:\Users\Ksenia\Downloads\Tracy Anderson Cardio Dance for Beginners\Cardio Dance for Beginners_04.avi
Format : AVI
Format/Info : Audio Video Interleave
File size : 331 MiB
Duration : 17mn 34s
Overall bit rate : 2 638 Kbps
Writing application : VirtualDubMod 1.5.4.1 (build 2178/release)
Writing library : VirtualDubMod build 2178/release
Video
ID : 0
Format : MPEG-4 Visual
Format profile : Advanced Simple@L5
Format settings, BVOP : No
Format settings, QPel : No
Format settings, GMC : No warppoints
Format settings, Matrix : Custom
Codec ID : XVID
Codec ID/Hint : XviD
Duration : 17mn 34s
Bit rate : 2 439 Kbps
Width : 720 pixels
Height : 416 pixels
Display aspect ratio : 1.731
Frame rate : 23.976 fps
Color space : YUV
Chroma subsampling : 4:2:0
Bit depth : 8 bits
Scan type : Progressive
Compression mode : Lossy
Bits/(Pixel*Frame) : 0.340
Stream size : 306 MiB (92%)
Writing library : XviD 64
Audio
ID : 1
Format : AC-3
Format/Info : Audio Coding 3
Mode extension : CM (complete main)
Format settings, Endianness : Big
Codec ID : 2000
Duration : 17mn 34s
Bit rate mode : Constant
Bit rate : 192 Kbps
Channel count : 2 channels
Channel positions : Front: L R
Sampling rate : 48.0 KHz
Bit depth : 16 bits
Compression mode : Lossy
Stream size : 24.1 MiB (7%)
Alignment : Split accross interleaves
Interleave, duration : 96 ms (2.30 video frames)
Interleave, preload duration : 96 ms

Скриншоты

[teatrix.ru].t13341.torrent 
Торрент: Зарегистрирован [ 2016-01-22 01:35 ] · 5BDF4048C675DCDD094641492391CE1E5243ED58

Скачать .torrent

Скачать

13 KB

Статус: проверено
Скачан: 1 раз
Размер: 1.26 GB
terms.php



Быстрый ответ

Имя:

      
Для отправки сообщений необходимо включить JavaScript
Показать сообщения:    

Текущее время: 05-Дек 01:22

Часовой пояс: UTC + 3


Вы можете начинать темы
Вы можете отвечать на сообщения
Вы не можете редактировать свои сообщения
Вы не можете удалять свои сообщения
Вы не можете голосовать в опросах
Вы не можете прикреплять файлы к сообщениям
Вы можете скачивать файлы