Tracy Anderson - Mat Workout For Beginners [2014, фитнес, DVDRip, ENG] (Видеоурок)


Статистика раздачи [Обновить пиров]
Размер:  1.02 GB   |    Зарегистрирован:  10 месяцев 16 дней   |    Скачан:  2 раза

Полного источника не было: 4 месяца 8 дней

 
   
 
 
 

[Цитировать]

Tracy Anderson - Mat Workout For Beginners
Страна: США
Тематика: фитнес
Тип раздаваемого материала: Видеоурок
Продолжительность: 01:19:00
Год выпуска: 2014
Язык: Английский
Перевод: Отсутствует
Описание: Фитнес-тренер голливудских звезд Трейси Андерсон (Tracy Anderson) представила программу для начинающих. Она содержит три 25-минутные тренировки, направленные на лепку и трансформацию вашего тела.
Для тренировок вам понадобятся легкие гантели (не более 1,5 кг), а также стул (только для второй тренировки).
Качество: DVDRip
Формат: AVI
Видео кодек: XviD, 720х416, 1 677 Kbps, 23.976 fps
Аудио кодек: AC3, 192 Kbps, 48.0 KHz, 2 ch

Скриншоты и техническая информацияMat Workout for Beginners_01Отчет Media Info

General
Complete name : E:\Tracy\Mat Workout for Beginners_01.avi
Format : AVI
Format/Info : Audio Video Interleave
File size : 346 MiB
Duration : 25mn 47s
Overall bit rate : 1 876 Kbps
Writing application : VirtualDubMod 1.5.4.1 (build 2178/release)
Writing library : VirtualDubMod build 2178/release
Video
ID : 0
Format : MPEG-4 Visual
Format profile : Advanced Simple@L5
Format settings, BVOP : Yes
Format settings, QPel : No
Format settings, GMC : No warppoints
Format settings, Matrix : Custom
Codec ID : XVID
Codec ID/Hint : XviD
Duration : 25mn 47s
Bit rate : 1 677 Kbps
Width : 720 pixels
Height : 416 pixels
Display aspect ratio : 1.731
Frame rate : 23.976 fps
Color space : YUV
Chroma subsampling : 4:2:0
Bit depth : 8 bits
Scan type : Progressive
Compression mode : Lossy
Bits/(Pixel*Frame) : 0.234
Stream size : 309 MiB (89%)
Writing library : XviD 64
Audio
ID : 1
Format : AC-3
Format/Info : Audio Coding 3
Mode extension : CM (complete main)
Format settings, Endianness : Big
Codec ID : 2000
Duration : 25mn 47s
Bit rate mode : Constant
Bit rate : 192 Kbps
Channel count : 2 channels
Channel positions : Front: L R
Sampling rate : 48.0 KHz
Bit depth : 16 bits
Compression mode : Lossy
Stream size : 35.4 MiB (10%)
Alignment : Split accross interleaves
Interleave, duration : 96 ms (2.30 video frames)
Interleave, preload duration : 96 ms

Скриншоты

Mat Workout for Beginners_02Отчет Media Info

General
Complete name : E:\Tracy\Mat Workout for Beginners_02.avi
Format : AVI
Format/Info : Audio Video Interleave
File size : 350 MiB
Duration : 25mn 15s
Overall bit rate : 1 938 Kbps
Writing application : VirtualDubMod 1.5.4.1 (build 2178/release)
Writing library : VirtualDubMod build 2178/release
Video
ID : 0
Format : MPEG-4 Visual
Format profile : Advanced Simple@L5
Format settings, BVOP : No
Format settings, QPel : No
Format settings, GMC : No warppoints
Format settings, Matrix : Custom
Codec ID : XVID
Codec ID/Hint : XviD
Duration : 25mn 15s
Bit rate : 1 739 Kbps
Width : 720 pixels
Height : 416 pixels
Display aspect ratio : 1.731
Frame rate : 23.976 fps
Color space : YUV
Chroma subsampling : 4:2:0
Bit depth : 8 bits
Scan type : Progressive
Compression mode : Lossy
Bits/(Pixel*Frame) : 0.242
Stream size : 314 MiB (90%)
Writing library : XviD 64
Audio
ID : 1
Format : AC-3
Format/Info : Audio Coding 3
Mode extension : CM (complete main)
Format settings, Endianness : Big
Codec ID : 2000
Duration : 25mn 15s
Bit rate mode : Constant
Bit rate : 192 Kbps
Channel count : 2 channels
Channel positions : Front: L R
Sampling rate : 48.0 KHz
Bit depth : 16 bits
Compression mode : Lossy
Stream size : 34.7 MiB (10%)
Alignment : Split accross interleaves
Interleave, duration : 96 ms (2.30 video frames)
Interleave, preload duration : 96 ms

Скриншоты

Mat Workout for Beginners_03Отчет Media Info

General
Complete name : E:\Tracy\Mat Workout for Beginners_03.avi
Format : AVI
Format/Info : Audio Video Interleave
File size : 350 MiB
Duration : 27mn 46s
Overall bit rate : 1 762 Kbps
Writing application : VirtualDubMod 1.5.4.1 (build 2178/release)
Writing library : VirtualDubMod build 2178/release
Video
ID : 0
Format : MPEG-4 Visual
Format profile : Advanced Simple@L5
Format settings, BVOP : Yes
Format settings, QPel : No
Format settings, GMC : No warppoints
Format settings, Matrix : Custom
Codec ID : XVID
Codec ID/Hint : XviD
Duration : 27mn 46s
Bit rate : 1 563 Kbps
Width : 720 pixels
Height : 416 pixels
Display aspect ratio : 1.731
Frame rate : 23.976 fps
Color space : YUV
Chroma subsampling : 4:2:0
Bit depth : 8 bits
Scan type : Progressive
Compression mode : Lossy
Bits/(Pixel*Frame) : 0.218
Stream size : 311 MiB (89%)
Writing library : XviD 64
Audio
ID : 1
Format : AC-3
Format/Info : Audio Coding 3
Mode extension : CM (complete main)
Format settings, Endianness : Big
Codec ID : 2000
Duration : 27mn 46s
Bit rate mode : Constant
Bit rate : 192 Kbps
Channel count : 2 channels
Channel positions : Front: L R
Sampling rate : 48.0 KHz
Bit depth : 16 bits
Compression mode : Lossy
Stream size : 38.1 MiB (11%)
Alignment : Split accross interleaves
Interleave, duration : 96 ms (2.30 video frames)
Interleave, preload duration : 96 ms

Скриншоты

[teatrix.ru].t13342.torrent 
Торрент: Зарегистрирован [ 2016-01-22 01:35 ] · FECDA70550B215C6A08C0BE8D02EFB45211783E3

Скачать .torrent

Скачать

11 KB

Статус: проверено
Скачан: 2 раз
Размер: 1.02 GB
terms.php



Быстрый ответ

Имя:

      
Для отправки сообщений необходимо включить JavaScript
Показать сообщения:    

Текущее время: 07-Дек 23:17

Часовой пояс: UTC + 3


Вы можете начинать темы
Вы можете отвечать на сообщения
Вы не можете редактировать свои сообщения
Вы не можете удалять свои сообщения
Вы не можете голосовать в опросах
Вы не можете прикреплять файлы к сообщениям
Вы можете скачивать файлы