Turbulence Training 2.0 (30 MP4) [2014, Фитнес, WebRip, ENG] (Видеоурок)


Статистика раздачи [Обновить пиров]
Размер:  2.65 GB   |    Зарегистрирован:  10 месяцев 12 дней   |    Скачан:  0 раз

Полного источника не было: Никогда

 
   
 
 
 

[Цитировать]

Turbulence Training 2.0 (30 MP4)
Страна: США
Тематика: Фитнес
Тип раздаваемого материала: Видеоурок
Год выпуска: 2014
Язык: Английский
Перевод: Отсутствует
Описание: Why the Wall Street Journal Claims Cardio is as Bad as Cheeseburgers and 3 Other Shocking Facts About Fat Loss.Imagine never having to suffer through another boring cardio workout again.And along with that, picture yourself being able to eat a juicy burger, all while enjoying the lean, sexy body you have been working so hard to achieve.
Почему Wall Street Journal считает Кардио нагрузки такими же плохими, как чизбургеры и 3 Других шокирующих факта о похудении. Представьте что никогда не будете страдать от еще одних скучных кардио тренировок. И вместе с тем, представьте себя в состоянии съесть сочный гамбургер, в то же время наслаждаясь худым, сексуальным телом, которое как вы думали невозможно достичь.
Качество: WebRip
Формат: MP4
Видео кодек: AVC-1
Аудио кодек: AAC
Видео: AVC1, 640 x 352 - 960 x 544 (1.76:1), ~700 kbps, 25 fps
Аудио: AAC, 48 kb/s, 48KHz, 2 ch

MediaInfo 960 x 544

General
Complete name : D:\Download\Utoorent\Turbulence Training 2.0\2k3-Workout-A.mp4
Format : MPEG-4
Format profile : Base Media / Version 2
Codec ID : mp42
File size : 166 MiB
Duration : 30mn 33s
Overall bit rate mode : Variable
Overall bit rate : 759 Kbps
Encoded date : UTC 2013-08-23 12:45:26
Tagged date : UTC 2013-08-23 12:54:35
Writing application : HandBrake 0.9.5 2011010300
Video
ID : 1
Format : AVC
Format/Info : Advanced Video Codec
Format profile : High@L3.1
Format settings, CABAC : Yes
Format settings, ReFrames : 4 frames
Codec ID : avc1
Codec ID/Info : Advanced Video Coding
Duration : 30mn 33s
Bit rate : 706 Kbps
Width : 960 pixels
Height : 544 pixels
Display aspect ratio : 16:9
Frame rate mode : Variable
Frame rate : 25.000 fps
Minimum frame rate : 12.500 fps
Maximum frame rate : 29.970 fps
Color space : YUV
Chroma subsampling : 4:2:0
Bit depth : 8 bits
Scan type : Progressive
Bits/(Pixel*Frame) : 0.054
Stream size : 154 MiB (93%)
Writing library : x264 core 112
Encoding settings : cabac=1 / ref=3 / deblock=1:0:0 / analyse=0x3:0x113 / me=hex / subme=7 / psy=1 / psy_rd=1.00:0.00 / mixed_ref=1 / me_range=16 / chroma_me=1 / trellis=1 / 8x8dct=1 / cqm=0 / deadzone=21,11 / fast_pskip=1 / chroma_qp_offset=-2 / threads=24 / sliced_threads=0 / nr=0 / decimate=1 / interlaced=0 / constrained_intra=0 / bframes=3 / b_pyramid=2 / b_adapt=1 / b_bias=0 / direct=1 / weightb=1 / open_gop=0 / weightp=2 / keyint=300 / keyint_min=29 / scenecut=40 / intra_refresh=0 / rc_lookahead=40 / rc=crf / mbtree=1 / crf=30.0 / qcomp=0.60 / qpmin=3 / qpmax=51 / qpstep=4 / ip_ratio=1.40 / aq=1:1.00
Encoded date : UTC 2013-08-23 12:45:26
Tagged date : UTC 2013-08-23 12:54:35
Color primaries : BT.709
Transfer characteristics : BT.709
Matrix coefficients : BT.709
Audio
ID : 2
Format : AAC
Format/Info : Advanced Audio Codec
Format profile : LC
Codec ID : 40
Duration : 30mn 33s
Bit rate mode : Variable
Bit rate : 48.0 Kbps
Maximum bit rate : 64.0 Kbps
Channel(s) : 1 channel
Channel positions : Front: C
Sampling rate : 48.0 KHz
Compression mode : Lossy
Stream size : 10.8 MiB (7%)
Language : English
Encoded date : UTC 2013-08-23 12:45:26
Tagged date : UTC 2013-08-23 12:54:34

MediaInfo 640 x 352

General
Complete name : D:\Download\Utoorent\Turbulence Training 2.0\5-Minute-Chest-Workout.mp4
Format : MPEG-4
Format profile : Base Media / Version 2
Codec ID : mp42
File size : 13.0 MiB
Duration : 8mn 1s
Overall bit rate mode : Variable
Overall bit rate : 227 Kbps
Encoded date : UTC 2013-08-21 14:31:56
Tagged date : UTC 2013-08-21 14:33:49
Writing application : HandBrake 0.9.5 2011010300
Video
ID : 1
Format : AVC
Format/Info : Advanced Video Codec
Format profile : High@L3.0
Format settings, CABAC : Yes
Format settings, ReFrames : 4 frames
Codec ID : avc1
Codec ID/Info : Advanced Video Coding
Duration : 8mn 1s
Bit rate : 173 Kbps
Width : 640 pixels
Height : 352 pixels
Display aspect ratio : 16:9
Frame rate mode : Variable
Frame rate : 25.000 fps
Minimum frame rate : 12.500 fps
Maximum frame rate : 29.970 fps
Color space : YUV
Chroma subsampling : 4:2:0
Bit depth : 8 bits
Scan type : Progressive
Bits/(Pixel*Frame) : 0.031
Stream size : 9.90 MiB (76%)
Writing library : x264 core 112
Encoding settings : cabac=1 / ref=3 / deblock=1:0:0 / analyse=0x3:0x113 / me=hex / subme=7 / psy=1 / psy_rd=1.00:0.00 / mixed_ref=1 / me_range=16 / chroma_me=1 / trellis=1 / 8x8dct=1 / cqm=0 / deadzone=21,11 / fast_pskip=1 / chroma_qp_offset=-2 / threads=24 / sliced_threads=0 / nr=0 / decimate=1 / interlaced=0 / constrained_intra=0 / bframes=3 / b_pyramid=2 / b_adapt=1 / b_bias=0 / direct=1 / weightb=1 / open_gop=0 / weightp=2 / keyint=300 / keyint_min=29 / scenecut=40 / intra_refresh=0 / rc_lookahead=40 / rc=crf / mbtree=1 / crf=30.0 / qcomp=0.60 / qpmin=3 / qpmax=51 / qpstep=4 / ip_ratio=1.40 / aq=1:1.00
Encoded date : UTC 2013-08-21 14:31:56
Tagged date : UTC 2013-08-21 14:33:49
Color primaries : BT.709
Transfer characteristics : BT.709
Matrix coefficients : BT.709
Audio
ID : 2
Format : AAC
Format/Info : Advanced Audio Codec
Format profile : LC
Codec ID : 40
Duration : 8mn 1s
Bit rate mode : Variable
Bit rate : 48.0 Kbps
Maximum bit rate : 65.8 Kbps
Channel(s) : 1 channel
Channel positions : Front: C
Sampling rate : 48.0 KHz
Compression mode : Lossy
Stream size : 2.83 MiB (22%)
Language : English
Encoded date : UTC 2013-08-21 14:31:56
Tagged date : UTC 2013-08-21 14:33:49
[teatrix.ru].t13345.torrent 
Торрент: Зарегистрирован [ 2016-01-22 01:35 ] · 1B0FC16CDBB7A86D7448BCB4136D48A7D24949AE

Скачать .torrent

Скачать

16 KB

Статус: проверено
Скачан: 0 раз
Размер: 2.65 GB
terms.php



Быстрый ответ

Имя:

      
Для отправки сообщений необходимо включить JavaScript
Показать сообщения:    

Текущее время: 03-Дек 20:45

Часовой пояс: UTC + 3


Вы можете начинать темы
Вы можете отвечать на сообщения
Вы не можете редактировать свои сообщения
Вы не можете удалять свои сообщения
Вы не можете голосовать в опросах
Вы не можете прикреплять файлы к сообщениям
Вы можете скачивать файлы