[HIIT]Livestrong STRONGER [2014, фитнес,HIIT, TVRip, ENG] (Видеоурок)


Статистика раздачи [Обновить пиров]
Размер:  6.17 GB   |    Зарегистрирован:  10 месяцев 14 дней   |    Скачан:  0 раз

Полного источника не было: 4 месяца 5 дней

 
   
 
 
 

[Цитировать]

Livestrong STRONGER
Тематика: фитнес,HIIT
Тип раздаваемого материала: Видеоурок
Продолжительность: 06:20:24
Год выпуска: 2014
Язык: Английский
Перевод: Отсутствует
Описание:
Фитнес-программа с Nicky Holender от Demand Media, Inc. на 8 недель.
Качество: TVRip
Формат: MP4
Видео кодек: H.264
Аудио кодек: AAC
Видео: AVC 2109 Kbps 1280 x 720 (1.778) at 23.976 fps
Аудио: AAC 192 Kbps 2 channels, 44.1 KHz

Скриншоты

Media Info

General
Complete name : STRONGER Month 2 Signature Workout - WARRIOR.mp4
Format : MPEG-4
Format profile : Base Media / Version 2
Codec ID : mp42
File size : 602 MiB
Duration : 36mn 33s
Overall bit rate : 2 303 Kbps
Encoded date : UTC 2014-01-16 17:26:39
Tagged date : UTC 2014-01-16 17:26:39
Video
ID : 1
Format : AVC
Format/Info : Advanced Video Codec
Format profile : High@L3.1
Format settings, CABAC : Yes
Format settings, ReFrames : 1 frame
Codec ID : avc1
Codec ID/Info : Advanced Video Coding
Duration : 36mn 33s
Bit rate mode : Variable
Bit rate : 2 109 Kbps
Maximum bit rate : 4 514 Kbps
Width : 1 280 pixels
Height : 720 pixels
Display aspect ratio : 16:9
Frame rate mode : Constant
Frame rate : 23.976 fps
Color space : YUV
Chroma subsampling : 4:2:0
Bit depth : 8 bits
Scan type : Progressive
Bits/(Pixel*Frame) : 0.095
Stream size : 551 MiB (92%)
Tagged date : UTC 2014-01-16 17:28:28
Audio
ID : 2
Format : AAC
Format/Info : Advanced Audio Codec
Format profile : LC
Codec ID : 40
Duration : 36mn 33s
Bit rate mode : Variable
Bit rate : 192 Kbps
Maximum bit rate : 202 Kbps
Channel(s) : 2 channels
Channel positions : Front: L R
Sampling rate : 44.1 KHz
Compression mode : Lossy
Stream size : 50.2 MiB (8%)
Title : IsoMedia File 5-11-2011
Encoded date : UTC 2014-01-16 17:27:43
Tagged date : UTC 2014-01-16 17:28:28

Дополнительно

[teatrix.ru].t13350.torrent 
Торрент: Зарегистрирован [ 2016-01-22 01:35 ] · D87BA324628F786CD816548CB96C1357CCAE0C47

Скачать .torrent

Скачать

18 KB

Статус: проверено
Скачан: 0 раз
Размер: 6.17 GB
terms.php



Быстрый ответ

Имя:

      
Для отправки сообщений необходимо включить JavaScript
Показать сообщения:    

Текущее время: 05-Дек 21:38

Часовой пояс: UTC + 3


Вы можете начинать темы
Вы можете отвечать на сообщения
Вы не можете редактировать свои сообщения
Вы не можете удалять свои сообщения
Вы не можете голосовать в опросах
Вы не можете прикреплять файлы к сообщениям
Вы можете скачивать файлы