WeckMethod RMT Club [2014, фитнес, работа с булавами, TVRip, ENG] (Видеоурок)


Статистика раздачи [Обновить пиров]
Размер:  267 MB   |    Зарегистрирован:  10 месяцев 17 дней   |    Скачан:  0 раз

Полного источника не было: Никогда

Личеров:  1  [  0 KB/s  ]   Подробная статистика пиров
 
   
 
 
 

[Цитировать]

WeckMethod RMT Club
Страна: США
Тематика: фитнес, работа с булавами
Тип раздаваемого материала: Видеоурок
Продолжительность: 01:22:12
Год выпуска: 2014
Язык: Английский
Перевод: Отсутствует
Описание:
RMT™ Club от создателя BOSU David Weck высокодинамичный, мультифункциональный тренировочный инструмент обучающий принципам Rotational Movement Training™, Non-Dominant Side Training™ и функциональным движениям.
The RMT™ Club from inventor of BOSU David Weck is a first of its kind, highly dynamic, multi-functional training tool that teaches the principles of Rotational Movement Training™, Non-Dominant Side Training™ and functional strength training. Not only does it offer an incredible full body workout, it educates your body to move more athletically and efficiently, unifying your body and building strength, coordination, balance and a greater range of motion.

скрытый текст

Качество: TVRip
Формат: MP4
Видео кодек: H.264
Аудио кодек: AAC
Видео: AVC 277 Kbps 640 x 360 (1.780) at 29.970 fps
Аудио: AAC 96.0 Kbps 2 channels, 44.1 KHz

Скриншоты

Media Info

General
Complete name : Functional Leg Exercise with RMT Club - Step Back Lunge.mp4
Format : MPEG-4
Format profile : Base Media / Version 2
Codec ID : mp42
File size : 4.41 MiB
Duration : 1mn 38s
Overall bit rate : 376 Kbps
Encoded date : UTC 2014-04-17 18:44:55
Tagged date : UTC 2014-04-17 18:44:55
Video
ID : 1
Format : AVC
Format/Info : Advanced Video Codec
Format profile : Baseline@L3.0
Format settings, CABAC : No
Format settings, ReFrames : 1 frame
Codec ID : avc1
Codec ID/Info : Advanced Video Coding
Duration : 1mn 38s
Bit rate mode : Variable
Bit rate : 277 Kbps
Maximum bit rate : 978 Kbps
Width : 640 pixels
Height : 360 pixels
Display aspect ratio : 16:9
Frame rate mode : Constant
Frame rate : 29.970 fps
Color space : YUV
Chroma subsampling : 4:2:0
Bit depth : 8 bits
Scan type : Progressive
Bits/(Pixel*Frame) : 0.040
Stream size : 3.25 MiB (74%)
Tagged date : UTC 2014-04-17 18:44:58
Audio
ID : 2
Format : AAC
Format/Info : Advanced Audio Codec
Format profile : LC
Codec ID : 40
Duration : 1mn 38s
Bit rate mode : Variable
Bit rate : 96.0 Kbps
Maximum bit rate : 102 Kbps
Channel(s) : 2 channels
Channel positions : Front: L R
Sampling rate : 44.1 KHz
Compression mode : Lossy
Stream size : 1.13 MiB (26%)
Title : IsoMedia File
Encoded date : UTC 2014-04-17 18:44:57
Tagged date : UTC 2014-04-17 18:44:58
[teatrix.ru].t13351.torrent 
Торрент: Зарегистрирован [ 2016-01-22 01:35 ] · 906734A540F424E09636A1A0F9257E5D03EC1D9A

Скачать .torrent

Скачать

14 KB

Статус: проверено
Скачан: 0 раз
Размер: 267 MB
terms.php



Быстрый ответ

Имя:

      
Для отправки сообщений необходимо включить JavaScript
Показать сообщения:    

Текущее время: 08-Дек 08:59

Часовой пояс: UTC + 3


Вы можете начинать темы
Вы можете отвечать на сообщения
Вы не можете редактировать свои сообщения
Вы не можете удалять свои сообщения
Вы не можете голосовать в опросах
Вы не можете прикреплять файлы к сообщениям
Вы можете скачивать файлы