Metamorphosis Continuity 2.2 by Tracy Anderson (Glutecentric) [2012, фитнес, ENG, DVDRip] (Видеоурок)


Статистика раздачи [Обновить пиров]
Размер:  4.09 GB   |    Зарегистрирован:  10 месяцев 15 дней   |    Скачан:  0 раз

Полного источника не было: Никогда

 
   
 
 
 

[Цитировать]

Metamorphosis Continuity 2.2 by Tracy Anderson (Glutecentric)
Страна: США
Тематика: фитнес
Тип раздаваемого материала: Видеоурок
Год выпуска: 2012
Язык: Английский
Перевод: Отсутствует
Описание: Metamorphosis - 90-дневная программа от известного тренера Трейси Андерсон (Tracy Anderson), которая тренирует таких звезд, как Гвинет Палтроу, Кортни Кокс, Шакира и др.
Программа состоит из 9 силовых тренировок, каждую из которых нужно делать на протяжении 10 дней, и одной кардиотренировки (ее нужно делать на протяжении всех 90 дней). Metamorphosis разработан для четырех типов фигур: абцентрики (те, у кого главной проблемной зоной является живот), хипцентрики (те, у кого главной проблемной зоной являются бедра), глюцентрики (те, у кого главной проблемной зоной являются ягодицы) и омницентрики (те, кто полнеет везде относительно равномерно). В данной раздаче вы найдете продолжение программы Метаморфоз для Глюцентриков (2год 4-6й месяц тренировки).
Качество: DVDRip
Формат: AVI
Видео кодек: AVC
Аудио кодек: MP3
Видео: 856x480 (1.78:1), 25 fps, H.264 ~1762 kbps avg, 0.17 bit/pixel
Аудио: 48 kHz, MPEG Layer 3, 2 ch, ~256.00 kbps avg

MediaInfo

ОбщееПолное имя : F:\2.2\Tracy2.2.1.aviФормат : AVIФормат/Информация : Audio Video InterleaveРазмер файла : 494 МбайтПродолжительность : 33 м.Режим общего битрейта : ПеременныйОбщий поток : 2032 Кбит/секПрограмма кодирования : Lavf54.63.104
ВидеоИдентификатор : 0Формат : AVCФормат/Информация : Advanced Video CodecПрофиль формата : Main@L3.0Параметр CABAC формата : ДаПараметр ReFrames формата : 1 кадрПараметр GOP формата : M=1, N=15Идентификатор кодека : H264Продолжительность : 33 м.Вид битрейта : ПеременныйБитрейт : 1763 Кбит/секМаксимальный битрейт : 6010 Кбит/секШирина : 856 пикселейВысота : 480 пикселейСоотношение сторон : 16:9Частота кадров : 25,000 кадров/секЦветовое пространство : YUVСубдискретизация насыщенности : 4:2:0Битовая глубина : 8 битТип развёртки : ПрогрессивнаяБит/(Пиксели*Кадры) : 0.172Размер потока : 429 Мбайт (87%)
АудиоИдентификатор : 1Формат : MPEG AudioВерсия формата : Version 1Профиль формата : Layer 3Режим : Joint stereoРасширение режима : MS StereoИдентификатор кодека : 55Идентификатор кодека/Подсказка : MP3Продолжительность : 33 м.Вид битрейта : ПостоянныйБитрейт : 256 Кбит/секКаналы : 2 каналаЧастота : 48,0 КГцМетод сжатия : С потерямиРазмер потока : 62,2 Мбайт (13%)Выравнивание : Соединение по промежуткамПродолжительность промежутка : 24 мс. (0,60 видеокадр)

Скриншоты

[teatrix.ru].t13353.torrent 
Торрент: Зарегистрирован [ 2016-01-22 01:35 ] · 6D53C29448D96B09B989ADB5BF04E2210765B708

Скачать .torrent

Скачать

11 KB

Статус: проверено
Скачан: 0 раз
Размер: 4.09 GB
terms.php



Быстрый ответ

Имя:

      
Для отправки сообщений необходимо включить JavaScript
Показать сообщения:    

Текущее время: 06-Дек 22:48

Часовой пояс: UTC + 3


Вы можете начинать темы
Вы можете отвечать на сообщения
Вы не можете редактировать свои сообщения
Вы не можете удалять свои сообщения
Вы не можете голосовать в опросах
Вы не можете прикреплять файлы к сообщениям
Вы можете скачивать файлы