Metamorphosis Continuity 2.1 by Tracy Anderson (Glutecentric)[2012, фитнес, ENG, DVDRip] (Видеоурок)


Статистика раздачи [Обновить пиров]
Размер:  2.98 GB   |    Зарегистрирован:  10 месяцев 20 дней   |    Скачан:  0 раз

Полного источника не было: Никогда

 
   
 
 
 

[Цитировать]

Metamorphosis Continuity 2.1 by Tracy Anderson (Glutecentric)
Страна: США
Тематика: фитнес
Тип раздаваемого материала: Видеоурок
Язык: Английский
Перевод: Отсутствует
Описание: Metamorphosis - 90-дневная программа от известного тренера Трейси Андерсон (Tracy Anderson), которая тренирует таких звезд, как Гвинет Палтроу, Кортни Кокс, Шакира и др.
Программа состоит из 9 силовых тренировок, каждую из которых нужно делать на протяжении 10 дней, и одной кардиотренировки (ее нужно делать на протяжении всех 90 дней). Metamorphosis разработан для четырех типов фигур: абцентрики (те, у кого главной проблемной зоной является живот), хипцентрики (те, у кого главной проблемной зоной являются бедра), глюцентрики (те, у кого главной проблемной зоной являются ягодицы) и омницентрики (те, кто полнеет везде относительно равномерно). В данной раздаче вы найдете продолжение программы Метаморфоз для Глюцентриков (2год 1-3й месяц тренировки).
Качество: DVDRip
Формат: AVI
Видео кодек: AVC
Аудио кодек: MP3
Видео: 640x480 (1.33:1), 25 fps, ~1199 kbps avg, 0.16 bit/pixel
Аудио: 44.100 kHz, MPEG Layer 3, 2 ch, ~192.00 kbps avg

MediaInfo

ОбщееПолное имя : F:\Tracy Anderson Metamorphosis Continuity 2.1 Glutecentric\2.1.1.aviФормат : AVIФормат/Информация : Audio Video InterleaveРазмер файла : 337 МбайтПродолжительность : 33 м.Общий поток : 1401 Кбит/сек
ВидеоИдентификатор : 0Формат : AVCФормат/Информация : Advanced Video CodecПрофиль формата : Main@L5.1Параметр CABAC формата : ДаПараметр ReFrames формата : 1 кадрИдентификатор кодека : H264Продолжительность : 33 м.Битрейт : 1199 Кбит/секШирина : 640 пикселейВысота : 480 пикселейСоотношение сторон : 4:3Частота кадров : 25,000 кадров/секЦветовое пространство : YUVСубдискретизация насыщенности : 4:2:0Битовая глубина : 8 битТип развёртки : ПрогрессивнаяБит/(Пиксели*Кадры) : 0.156Размер потока : 288 Мбайт (86%)
АудиоИдентификатор : 1Формат : MPEG AudioВерсия формата : Version 1Профиль формата : Layer 3Идентификатор кодека : 55Идентификатор кодека/Подсказка : MP3Продолжительность : 33 м.Вид битрейта : ПостоянныйБитрейт : 192 Кбит/секКаналы : 2 каналаЧастота : 44,1 КГцМетод сжатия : С потерямиРазмер потока : 46,1 Мбайт (14%)Выравнивание : Разделение по промежуткамПродолжительность промежутка : 40 мс. (1,00 видеокадр)Время предзагрузки промежутка : 154 мс.Библиотека кодирования : LAMELAME_MAJOR_VERS

Скриншоты

[teatrix.ru].t13354.torrent 
Торрент: Зарегистрирован [ 2016-01-22 01:35 ] · 8539035E0E10D03B9FD18C96B55EB58A89857162

Скачать .torrent

Скачать

16 KB

Статус: проверено
Скачан: 0 раз
Размер: 2.98 GB
terms.php



Быстрый ответ

Имя:

      
Для отправки сообщений необходимо включить JavaScript
Показать сообщения:    

Текущее время: 11-Дек 10:59

Часовой пояс: UTC + 3


Вы можете начинать темы
Вы можете отвечать на сообщения
Вы не можете редактировать свои сообщения
Вы не можете удалять свои сообщения
Вы не можете голосовать в опросах
Вы не можете прикреплять файлы к сообщениям
Вы можете скачивать файлы