Leslie Sansone - 5 Mega Miles with Band [2013, фитнес, аэробика, DVDRip, ENG] (Видеоурок)


Статистика раздачи [Обновить пиров]
Размер:  867 MB   |    Зарегистрирован:  10 месяцев 19 дней   |    Скачан:  0 раз

Полного источника не было: Никогда

Личеров:  1  [  0 KB/s  ]   Подробная статистика пиров
 
   
 
 
 

[Цитировать]

Leslie Sansone - 5 Mega Miles with Band
Страна: USA
Тематика: фитнес, аэробика
Тип раздаваемого материала: Видеоурок
Продолжительность: 01:22:43
Год выпуска: 2013
Язык: Английский
Перевод: Отсутствует
Описание: Используйте мили в любых комбинациях, которые соответствуют вашему графику и вашим целям. Попробуйте 1 милю пешком каждое утро, чтобы начать свой день с правильного пути ... или 2 мили пешком до обеда ... почему бы не 3 мили каждую среду? Есть так много комбинаций, чтобы тренировки оставались свежими и эффективными! Это все работает, чтобы сохранить вас сильными и стройными!

Трейлер на ютубе
http://www.youtube.com/watch?v=YPNv36II21k
Media Info

скрытый текст

Format : AVI
Format/Info : Audio Video Interleave
File size : 867 MiB
Duration : 1h 22mn
Overall bit rate : 1 465 Kbps
Writing library : MPlayer
Video
ID : 0
Format : MPEG-4 Visual
Format profile : Advanced Simple@L5
Format settings, BVOP : 2
Format settings, QPel : No
Format settings, GMC : No warppoints
Format settings, Matrix : Default (H.263)
Codec ID : XVID
Codec ID/Hint : XviD
Duration : 1h 22mn
Bit rate : 1 235 Kbps
Width : 720 pixels
Height : 400 pixels
Display aspect ratio : 16:9
Frame rate : 29.970 fps
Color space : YUV
Chroma subsampling : 4:2:0
Bit depth : 8 bits
Scan type : Progressive
Compression mode : Lossy
Bits/(Pixel*Frame) : 0.143
Stream size : 731 MiB (84%)
Writing library : XviD 1.1.2 (UTC 2006-11-01)
Audio
ID : 1
Format : MPEG Audio
Format version : Version 1
Format profile : Layer 3
Mode : Joint stereo
Mode extension : MS Stereo
Codec ID : 55
Codec ID/Hint : MP3
Duration : 1h 22mn
Bit rate mode : Constant
Bit rate : 224 Kbps
Channel(s) : 2 channels
Sampling rate : 44.1 KHz
Compression mode : Lossy
Delay relative to video : 33ms
Stream size : 133 MiB (15%)
Alignment : Split accross interleaves
Interleave, duration : 500 ms (14.98 video frames)
Interleave, preload duration : 500 ms
Writing library : LAME3.97
Качество: DVDRip
Формат: AVI
Видео кодек: XviD
Аудио кодек: MP3
Видео: Xvid 720x400 29.97fps 1235kbps 16:9
Аудио: MPEG Audio Layer 3 44100Hz stereo 224kbps

Скриншоты

[teatrix.ru].t13355.torrent 
Торрент: Зарегистрирован [ 2016-01-22 01:35 ] · F2948E554AE3D86726E6F659C9CE2788EEB7BF7C

Скачать .torrent

Скачать

17 KB

Статус: проверено
Скачан: 0 раз
Размер: 867 MB
terms.php



Быстрый ответ

Имя:

      
Для отправки сообщений необходимо включить JavaScript
Показать сообщения:    

Текущее время: 10-Дек 04:06

Часовой пояс: UTC + 3


Вы можете начинать темы
Вы можете отвечать на сообщения
Вы не можете редактировать свои сообщения
Вы не можете удалять свои сообщения
Вы не можете голосовать в опросах
Вы не можете прикреплять файлы к сообщениям
Вы можете скачивать файлы