Cathe Friedrich's Great Glutes [2013, Фитнес, DVD5, ENG] (Видеоурок)


Статистика раздачи [Обновить пиров]
Размер:  3.22 GB   |    Зарегистрирован:  10 месяцев 16 дней   |    Скачан:  0 раз

Полного источника не было: Никогда

 
   
 
 
 

[Цитировать]

Cathe Friedrich's Great Glutes
Страна: USA
Тематика: Фитнес
Тип раздаваемого материала: Видеоурок
Продолжительность: 01:04:50
Год выпуска: 2013
Язык: Английский
Перевод: Отсутствует
Описание: This lower body toning and shaping workout features a mix of new, innovative standing and floor glute exercises along with the most effective best of the best hamstring, glute and inner thigh exercises that will leave you with the firmest rock bottom and legs you could ever imagine! /
Эта тренировка для проработки нижней части тела сочетает в себе новые, инновационные упражнения для ягодиц (стоя и на полу) и наиболее эффективные традиционные упражнения для ягодиц, задней и внутренней поверхности бедра, благодаря чему ваша попа и ноги превзойдут все ваши ожидания.
Качество: DVD5
Формат: DVD video
Видео кодек: MPEG2
Аудио кодек: AC3
Видео: NTSC 16:9, MPEG2, 720 x 480 (1.78:1), ~ 6500 kbps, 29.97 fps
Аудио: AC3, 192 kb/s, 48KHz, 2 ch
Аудио 2: AC3, 192 kb/s, 48KHz, 2 ch

DVDInfo

Title: Cathe Friedrich's Great Glutes
Size: 3.22 Gb ( 3 380 360,00 KBytes ) - DVD-5
Enabled regions: 1, 2, 3, 4, 5, 6, 7, 8
VTS_01 :
Play Length: 01:04:46+{00:00:53}+{00:00:37}+{00:55:49}+{01:02:33}+{01:02:33}+{00:55:37}+{00:54:18}+{00:53:02}+{00:45:40}+{00:46:56}+{00:48:15}+{00:46:06}
Video: NTSC 16:9 (720x480) VBR, Auto Letterboxed
Audio:
Not specified, AC3, 2/0 (L,R) ch, 192 kbps, Delay 0 mSec
Not specified, AC3, 2/0 (L,R) ch, 192 kbps, Delay 0 mSec
* Menus Information *
VIDEO_TS Menu
Video:
NTSC 16:9 (720x480) VBR
Auto Letterboxed
English Language Unit :
Title Menu
VTS_01 Menu
Video:
NTSC 16:9 (720x480) VBR
Auto Letterboxed
Audio:
Not specified (Dolby AC3, 2 ch)
English Language Unit :
Root Menu

MediaInfo

ОбщееПолное имя : K:\Раздачи Видео\проверяемые\Cathe Friedrich's Great Glutes\VIDEO_TS\VTS_01_1.VOBФормат : MPEG-PSРазмер файла : 1024 МбайтПродолжительность : 20 м.Общий поток : 7012 Кбит/сек
ВидеоИдентификатор : 224 (0xE0)Формат : MPEG VideoВерсия формата : Version 2Профиль формата : Main@MainПараметр BVOP формата : ДаПараметр матрицы формата : ВыборочнаяПараметр GOP формата : M=3, N=15Продолжительность : 20 м.Битрейт : 6500 Кбит/секШирина : 720 пикселейВысота : 480 пикселейСоотношение сторон : 16:9Частота кадров : 29,970 кадров/секСтандарт вещания : NTSCЦветовое пространство : YUVСубдискретизация насыщенности : 4:2:0Битовая глубина : 8 битТип развёртки : ЧересстрочнаяПорядок развёртки : Нижнее поле первоеМетод сжатия : С потерямиБит/(Пиксели*Кадры) : 0.628Временной код первого кадра : 01:00:00;00Оригинал временного кода : Group of pictures headerРазмер потока : 947 Мбайт (93%)Основные цвета : BT.601 NTSCХарактеристики трансфера : BT.601Коэффициенты матрицы : BT.601
Аудио #1Идентификатор : 189 (0xBD)-128 (0x80)Формат : AC-3Формат/Информация : Audio Coding 3Расширение режима : CM (complete main)Параметр Endianness формата : BigРежим смешивания : DVD-VideoПродолжительность : 20 м.Вид битрейта : ПостоянныйБитрейт : 192 Кбит/секКаналы : 2 каналаРасположение каналов : Front: L RЧастота : 48,0 КГцБитовая глубина : 16 битМетод сжатия : С потерямиРазмер потока : 28,0 Мбайт (3%)
Аудио #2Идентификатор : 189 (0xBD)-129 (0x81)Формат : AC-3Формат/Информация : Audio Coding 3Расширение режима : CM (complete main)Параметр Endianness формата : BigРежим смешивания : DVD-VideoПродолжительность : 20 м.Вид битрейта : ПостоянныйБитрейт : 192 Кбит/секКаналы : 2 каналаРасположение каналов : Front: L RЧастота : 48,0 КГцБитовая глубина : 16 битМетод сжатия : С потерямиРазмер потока : 28,0 Мбайт (3%)
Меню
ОбщееПолное имя : K:\Раздачи Видео\проверяемые\Cathe Friedrich's Great Glutes\VIDEO_TS\VTS_01_2.VOBФормат : MPEG-PSРазмер файла : 1024 МбайтПродолжительность : 20 м.Общий поток : 7012 Кбит/сек
ВидеоИдентификатор : 224 (0xE0)Формат : MPEG VideoВерсия формата : Version 2Профиль формата : Main@MainПараметр BVOP формата : ДаПараметр матрицы формата : ВыборочнаяПараметр GOP формата : M=3, N=15Продолжительность : 20 м.Битрейт : 6500 Кбит/секШирина : 720 пикселейВысота : 480 пикселейСоотношение сторон : 16:9Частота кадров : 29,970 кадров/секСтандарт вещания : NTSCЦветовое пространство : YUVСубдискретизация насыщенности : 4:2:0Битовая глубина : 8 битТип развёртки : ЧересстрочнаяПорядок развёртки : Нижнее поле первоеМетод сжатия : С потерямиБит/(Пиксели*Кадры) : 0.628Временной код первого кадра : 01:20:25;06Оригинал временного кода : Group of pictures headerРазмер потока : 947 Мбайт (93%)Основные цвета : BT.601 NTSCХарактеристики трансфера : BT.601Коэффициенты матрицы : BT.601
Аудио #1Идентификатор : 189 (0xBD)-128 (0x80)Формат : AC-3Формат/Информация : Audio Coding 3Расширение режима : CM (complete main)Параметр Endianness формата : BigРежим смешивания : DVD-VideoПродолжительность : 20 м.Вид битрейта : ПостоянныйБитрейт : 192 Кбит/секКаналы : 2 каналаРасположение каналов : Front: L RЧастота : 48,0 КГцБитовая глубина : 16 битМетод сжатия : С потерямиЗадержка видео : -584 мс.Размер потока : 28,0 Мбайт (3%)
Аудио #2Идентификатор : 189 (0xBD)-129 (0x81)Формат : AC-3Формат/Информация : Audio Coding 3Расширение режима : CM (complete main)Параметр Endianness формата : BigРежим смешивания : DVD-VideoПродолжительность : 20 м.Вид битрейта : ПостоянныйБитрейт : 192 Кбит/секКаналы : 2 каналаРасположение каналов : Front: L RЧастота : 48,0 КГцБитовая глубина : 16 битМетод сжатия : С потерямиЗадержка видео : -584 мс.Размер потока : 28,0 Мбайт (3%)
Меню
ОбщееПолное имя : K:\Раздачи Видео\проверяемые\Cathe Friedrich's Great Glutes\VIDEO_TS\VTS_01_3.VOBФормат : MPEG-PSРазмер файла : 1024 МбайтПродолжительность : 20 м.Общий поток : 7012 Кбит/сек
ВидеоИдентификатор : 224 (0xE0)Формат : MPEG VideoВерсия формата : Version 2Профиль формата : Main@MainПараметр BVOP формата : ДаПараметр матрицы формата : ВыборочнаяПараметр GOP формата : M=3, N=15Продолжительность : 20 м.Битрейт : 6500 Кбит/секШирина : 720 пикселейВысота : 480 пикселейСоотношение сторон : 16:9Частота кадров : 29,970 кадров/секСтандарт вещания : NTSCЦветовое пространство : YUVСубдискретизация насыщенности : 4:2:0Битовая глубина : 8 битТип развёртки : ЧересстрочнаяПорядок развёртки : Нижнее поле первоеМетод сжатия : С потерямиБит/(Пиксели*Кадры) : 0.628Временной код первого кадра : 01:40:49;27Оригинал временного кода : Group of pictures headerРазмер потока : 947 Мбайт (93%)Основные цвета : BT.601 NTSCХарактеристики трансфера : BT.601Коэффициенты матрицы : BT.601
Аудио #1Идентификатор : 189 (0xBD)-128 (0x80)Формат : AC-3Формат/Информация : Audio Coding 3Расширение режима : CM (complete main)Параметр Endianness формата : BigРежим смешивания : DVD-VideoПродолжительность : 20 м.Вид битрейта : ПостоянныйБитрейт : 192 Кбит/секКаналы : 2 каналаРасположение каналов : Front: L RЧастота : 48,0 КГцБитовая глубина : 16 битМетод сжатия : С потерямиЗадержка видео : -508 мс.Размер потока : 28,0 Мбайт (3%)
Аудио #2Идентификатор : 189 (0xBD)-129 (0x81)Формат : AC-3Формат/Информация : Audio Coding 3Расширение режима : CM (complete main)Параметр Endianness формата : BigРежим смешивания : DVD-VideoПродолжительность : 20 м.Вид битрейта : ПостоянныйБитрейт : 192 Кбит/секКаналы : 2 каналаРасположение каналов : Front: L RЧастота : 48,0 КГцБитовая глубина : 16 битМетод сжатия : С потерямиЗадержка видео : -508 мс.Размер потока : 28,0 Мбайт (3%)
Меню
ОбщееПолное имя : K:\Раздачи Видео\проверяемые\Cathe Friedrich's Great Glutes\VIDEO_TS\VTS_01_4.VOBФормат : MPEG-PSРазмер файла : 180 МбайтПродолжительность : 3 м. 36 с.Общий поток : 7003 Кбит/сек
ВидеоИдентификатор : 224 (0xE0)Формат : MPEG VideoВерсия формата : Version 2Профиль формата : Main@MainПараметр BVOP формата : ДаПараметр матрицы формата : ВыборочнаяПараметр GOP формата : M=3, N=15Продолжительность : 3 м. 35 с.Битрейт : 6500 Кбит/секШирина : 720 пикселейВысота : 480 пикселейСоотношение сторон : 16:9Частота кадров : 29,970 кадров/секСтандарт вещания : NTSCЦветовое пространство : YUVСубдискретизация насыщенности : 4:2:0Битовая глубина : 8 битТип развёртки : ЧересстрочнаяПорядок развёртки : Нижнее поле первоеМетод сжатия : С потерямиБит/(Пиксели*Кадры) : 0.628Временной код первого кадра : 02:01:14;20Оригинал временного кода : Group of pictures headerРазмер потока : 167 Мбайт (92%)Основные цвета : BT.601 NTSCХарактеристики трансфера : BT.601Коэффициенты матрицы : BT.601
Аудио #1Идентификатор : 189 (0xBD)-128 (0x80)Формат : AC-3Формат/Информация : Audio Coding 3Расширение режима : CM (complete main)Параметр Endianness формата : BigРежим смешивания : DVD-VideoПродолжительность : 3 м. 36 с.Вид битрейта : ПостоянныйБитрейт : 192 Кбит/секКаналы : 2 каналаРасположение каналов : Front: L RЧастота : 48,0 КГцБитовая глубина : 16 битМетод сжатия : С потерямиЗадержка видео : -399 мс.Размер потока : 4,95 Мбайт (3%)
Аудио #2Идентификатор : 189 (0xBD)-129 (0x81)Формат : AC-3Формат/Информация : Audio Coding 3Расширение режима : CM (complete main)Параметр Endianness формата : BigРежим смешивания : DVD-VideoПродолжительность : 3 м. 36 с.Вид битрейта : ПостоянныйБитрейт : 192 Кбит/секКаналы : 2 каналаРасположение каналов : Front: L RЧастота : 48,0 КГцБитовая глубина : 16 битМетод сжатия : С потерямиЗадержка видео : -399 мс.Размер потока : 4,95 Мбайт (3%)
Меню

Скриншоты

[teatrix.ru].t13357.torrent 
Торрент: Зарегистрирован [ 2016-01-22 01:35 ] · D942605365518F0EEFDF770D98B8589A293ECE10

Скачать .torrent

Скачать

17 KB

Статус: проверено
Скачан: 0 раз
Размер: 3.22 GB
terms.php



Быстрый ответ

Имя:

      
Для отправки сообщений необходимо включить JavaScript
Показать сообщения:    

Текущее время: 08-Дек 01:21

Часовой пояс: UTC + 3


Вы можете начинать темы
Вы можете отвечать на сообщения
Вы не можете редактировать свои сообщения
Вы не можете удалять свои сообщения
Вы не можете голосовать в опросах
Вы не можете прикреплять файлы к сообщениям
Вы можете скачивать файлы