Leslie Sansone - Walk to the Hits Radio Remixes [2013, аэробика, фитнес, DVDRip, ENG] (Видеоурок)


Статистика раздачи [Обновить пиров]
Размер:  495 MB   |    Зарегистрирован:  10 месяцев 12 дней   |    Скачан:  0 раз

Полного источника не было: Никогда

 
   
 
 
 

[Цитировать]

Leslie Sansone - Walk to the Hits Radio Remixes
Страна: USA
Тематика: аэробика, фитнес
Тип раздаваемого материала: Видеоурок
Продолжительность: 00:47:38
Год выпуска: 2013
Язык: Английский
Перевод: Отсутствует
Описание:
Это большой сжигающий калории концерт у вас дома! Walk To The Hits соединяет хитовую музыку и высоко-интенсивный интервальный тренинг (HIIT) - это превосходная комбинация! Заводная музыка поможет поднять ваш пульс, а HIIT позволит сжечь больше калорий за меньшее время. В этой программе Лесли соединила некоторые из ее любимых радио хитов со свежими движениями для создания самой веселой "ходильной" 3-мильной тренировки.
Трейлер
http://www.youtube.com/watch?v=s3nZwbLqDRY
Качество: DVDRip
Формат: AVI
Видео кодек: XviD
Аудио кодек: MP3
Видео: Xvid 720x400 29.97fps 1246kbps 16:9[Video 0]
Аудио: MPEG Audio Layer 3 44100Hz stereo 192kbps [Audio 1]

Скриншоты

MediaInfo

Format : AVI
Format/Info : Audio Video Interleave
File size : 495 MiB
Duration : 47mn 38s
Overall bit rate : 1 452 Kbps
Writing library : MPlayer
Video
ID : 0
Format : MPEG-4 Visual
Format profile : Advanced Simple@L5
Format settings, BVOP : 2
Format settings, QPel : No
Format settings, GMC : No warppoints
Format settings, Matrix : Default (H.263)
Codec ID : XVID
Codec ID/Hint : XviD
Duration : 47mn 37s
Bit rate : 1 247 Kbps
Width : 720 pixels
Height : 400 pixels
Display aspect ratio : 16:9
Original display aspect ratio : 16:9
Frame rate : 29.970 fps
Color space : YUV
Chroma subsampling : 4:2:0
Bit depth : 8 bits
Scan type : Progressive
Compression mode : Lossy
Bits/(Pixel*Frame) : 0.144
Stream size : 425 MiB (86%)
Writing library : XviD 1.1.2 (UTC 2006-11-01)
Audio
ID : 1
Format : MPEG Audio
Format version : Version 1
Format profile : Layer 3
Mode : Joint stereo
Mode extension : MS Stereo
Codec ID : 55
Codec ID/Hint : MP3
Duration : 47mn 38s
Bit rate mode : Constant
Bit rate : 192 Kbps
Channel(s) : 2 channels
Sampling rate : 44.1 KHz
Compression mode : Lossy
Delay relative to video : 67ms
Stream size : 65.4 MiB (13%)
Alignment : Aligned on interleaves
Interleave, duration : 26 ms (0.78 video frame)
Interleave, preload duration : 809 ms
Writing library : LAME3.97
[teatrix.ru].t13361.torrent 
Торрент: Зарегистрирован [ 2016-01-22 01:35 ] · F11BEE4135B2893EB4666921E8A6B51AB29760D0

Скачать .torrent

Скачать

20 KB

Статус: проверено
Скачан: 0 раз
Размер: 495 MB
terms.php



Быстрый ответ

Имя:

      
Для отправки сообщений необходимо включить JavaScript
Показать сообщения:    

Текущее время: 03-Дек 03:24

Часовой пояс: UTC + 3


Вы можете начинать темы
Вы можете отвечать на сообщения
Вы не можете редактировать свои сообщения
Вы не можете удалять свои сообщения
Вы не можете голосовать в опросах
Вы не можете прикреплять файлы к сообщениям
Вы можете скачивать файлы