Davina - Fit in 15 / Давина - Фитнес в 15 минут [2014, Фитнес, DVD5, ENG] (Видеоурок)


Статистика раздачи [Обновить пиров]
Размер:  4.36 GB   |    Зарегистрирован:  10 месяцев 18 дней   |    Скачан:  0 раз

Полного источника не было: Никогда

 
   
 
 
 

[Цитировать]

Davina - Fit in 15 / Давина - Фитнес в 15 минут
Страна: USA
Тематика: Фитнес
Тип раздаваемого материала: Видеоурок
Продолжительность: 01:30:05
Год выпуска: 2014
Язык: Английский
Перевод: Отсутствует
Язык субтитров: English
Описание: Davina has found a new way to keep fit and toned, without it taking over her busy schedule. Fit in 15 is very simple, just do a combination of Jackie and Mark’s amazing 15 minute workouts and you’ll see great results. /
Давина нашла новый способ сохранять форму и тонус, без больших затрат в ее напряженный графике работы. Фитнес в 15 минут очень прост, достаточно делать сочетая удивительных 15-минутные тренировки Джеки и Марка, и вы достигните больших результатов.
Качество: DVD5
Формат: DVD Video
Видео кодек: MPEG2
Аудио кодек: AC3
Видео: PAL 16:9, MPEG2, 720 x 576 (1.78:1), ~ 3591.22 kbps, 25 fps
Аудио: AC3, 192 kb/s, 48KHz, 2 ch

DVDInfo

Title: Davina - Fit in 15
Size: 4.36 Gb ( 4 571 118,00 KBytes ) - DVD-5
Enabled regions: 1, 2, 3, 4, 5, 6, 7, 8
VTS_01 :
Play Length: 00:00:00+01:30:07+00:14:31+00:14:45+00:16:07+00:17:38+00:19:33+{00:04:23}
Video: PAL 16:9 (720x576) VBR, Auto Letterboxed
Audio:
English, AC3, 2/0 (L,R) ch, 192 kbps, Delay 0 mSec
Subtitles:
English
VTS_02 :
Play Length: 00:00:30
Video: PAL 16:9 (720x576) VBR, Auto Letterboxed
Audio:
English (Dolby AC3, 2 ch)
* Menus Information *
VIDEO_TS Menu
Video:
PAL 16:9 (720x576) VBR
Auto Letterboxed
English Language Unit :
Title Menu
VTS_01 Menu
Video:
PAL 16:9 (720x576) VBR
Auto Letterboxed
Audio:
Not specified (Dolby AC3, 2 ch)
English Language Unit :
Root Menu
VTS_02 Menu
Video:
PAL 16:9 (720x576) VBR
Auto Letterboxed
English Language Unit :
Root Menu

MediaInfo

Общее
Полное имя : Q:\Видео\Видеоуроки\Davina - Fit in 15\VIDEO_TS\VIDEO_TS.BUP
Формат : DVD Video
Профиль формата : Menu
Размер файла : 12,0 Кбайт
Режим общего битрейта : Переменный
Видео
Идентификатор : 224 (0xE0)
Формат : MPEG Video
Версия формата : Version 2
Вид битрейта : Переменный
Ширина : 720 пикселей
Высота : 576 пикселей
Соотношение сторон : 16:9
Частота кадров : 25,000 кадров/сек
Стандарт вещания : PAL
Метод сжатия : С потерями
Текст
Формат : RLE
Формат/Информация : Run-length encoding
Битовая глубина : 2 бит
Общее
Полное имя : Q:\Видео\Видеоуроки\Davina - Fit in 15\VIDEO_TS\VIDEO_TS.IFO
Формат : DVD Video
Профиль формата : Menu
Размер файла : 12,0 Кбайт
Режим общего битрейта : Переменный
Видео
Идентификатор : 224 (0xE0)
Формат : MPEG Video
Версия формата : Version 2
Вид битрейта : Переменный
Ширина : 720 пикселей
Высота : 576 пикселей
Соотношение сторон : 16:9
Частота кадров : 25,000 кадров/сек
Стандарт вещания : PAL
Метод сжатия : С потерями
Текст
Формат : RLE
Формат/Информация : Run-length encoding
Битовая глубина : 2 бит
Общее
Полное имя : Q:\Видео\Видеоуроки\Davina - Fit in 15\VIDEO_TS\VIDEO_TS.VOB
Формат : MPEG-PS
Размер файла : 300 Кбайт
Продолжительность : 480 мс.
Общий поток : 5120 Кбит/сек
Видео
Идентификатор : 224 (0xE0)
Формат : MPEG Video
Версия формата : Version 2
Профиль формата : Main@Main
Параметр BVOP формата : Да
Параметр матрицы формата : Выборочная
Продолжительность : 480 мс.
Максимальный битрейт : 6000 Кбит/сек
Ширина : 720 пикселей
Высота : 576 пикселей
Соотношение сторон : 16:9
Частота кадров : 25,000 кадров/сек
Стандарт вещания : PAL
Цветовое пространство : YUV
Субдискретизация насыщенности : 4:2:0
Битовая глубина : 8 бит
Тип развёртки : Прогрессивная
Порядок развёртки : Верхнее поле первое
Метод сжатия : С потерями
Временной код первого кадра : 01:00:00:00
Оригинал временного кода : Group of pictures header
Меню
Общее
Полное имя : Q:\Видео\Видеоуроки\Davina - Fit in 15\VIDEO_TS\VTS_01_0.BUP
Формат : DVD Video
Профиль формата : Program
Размер файла : 92,0 Кбайт
Продолжительность : 1 ч. 30 м.
Режим общего битрейта : Переменный
Общий поток : 139 бит/сек
Видео
Идентификатор : 224 (0xE0)
Формат : MPEG Video
Версия формата : Version 2
Продолжительность : 1 ч. 30 м.
Вид битрейта : Переменный
Ширина : 720 пикселей
Высота : 576 пикселей
Соотношение сторон : 16:9
Частота кадров : 25,000 кадров/сек
Стандарт вещания : PAL
Метод сжатия : С потерями
Аудио
Идентификатор : 128 (0x80)
Формат : AC-3
Формат/Информация : Audio Coding 3
Продолжительность : 1 ч. 30 м.
Каналы : 2 канала
Частота : 48,0 КГц
Метод сжатия : С потерями
Язык : English
Текст
Идентификатор : 32 (0x20)
Формат : RLE
Формат/Информация : Run-length encoding
Битовая глубина : 2 бит
Язык : English
Меню #1
Продолжительность : 480 мс.
00:00:00.000 : Chapter 1
List (Audio) : 0
List (Subtitles 4/3) : 0
List (Subtitles Wide) : 0
List (Subtitles Letterbox) : 0
List (Subtitles Pan&Scan) : 0
Меню #2
Продолжительность : 1 ч. 30 м.
00:00:00.000 : Chapter 1
00:00:01.280 : Chapter 2
00:00:28.280 : Chapter 3
00:01:13.280 : Chapter 4
00:01:27.480 : Chapter 5
00:01:50.480 : Chapter 6
00:02:45.480 : Chapter 7
00:03:37.480 : Chapter 8
00:04:01.480 : Chapter 9
List (Audio) : 0
List (Subtitles 4/3) : 0
List (Subtitles Wide) : 0
List (Subtitles Letterbox) : 0
List (Subtitles Pan&Scan) : 0
Общее
Полное имя : Q:\Видео\Видеоуроки\Davina - Fit in 15\VIDEO_TS\VTS_01_0.IFO
Формат : DVD Video
Профиль формата : Program
Размер файла : 92,0 Кбайт
Продолжительность : 1 ч. 30 м.
Режим общего битрейта : Переменный
Общий поток : 139 бит/сек
Видео
Идентификатор : 224 (0xE0)
Формат : MPEG Video
Версия формата : Version 2
Продолжительность : 1 ч. 30 м.
Вид битрейта : Переменный
Ширина : 720 пикселей
Высота : 576 пикселей
Соотношение сторон : 16:9
Частота кадров : 25,000 кадров/сек
Стандарт вещания : PAL
Метод сжатия : С потерями
Аудио
Идентификатор : 128 (0x80)
Формат : AC-3
Формат/Информация : Audio Coding 3
Продолжительность : 1 ч. 30 м.
Каналы : 2 канала
Частота : 48,0 КГц
Метод сжатия : С потерями
Язык : English
Текст
Идентификатор : 32 (0x20)
Формат : RLE
Формат/Информация : Run-length encoding
Битовая глубина : 2 бит
Язык : English
Меню #1
Продолжительность : 480 мс.
00:00:00.000 : Chapter 1
List (Audio) : 0
List (Subtitles 4/3) : 0
List (Subtitles Wide) : 0
List (Subtitles Letterbox) : 0
List (Subtitles Pan&Scan) : 0
Меню #2
Продолжительность : 1 ч. 30 м.
00:00:00.000 : Chapter 1
00:00:01.280 : Chapter 2
00:00:28.280 : Chapter 3
00:01:13.280 : Chapter 4
00:01:27.480 : Chapter 5
00:01:50.480 : Chapter 6
00:02:45.480 : Chapter 7
00:03:37.480 : Chapter 8
00:04:01.480 : Chapter 9
List (Audio) : 0
List (Subtitles 4/3) : 0
List (Subtitles Wide) : 0
List (Subtitles Letterbox) : 0
List (Subtitles Pan&Scan) : 0
Общее
Полное имя : Q:\Видео\Видеоуроки\Davina - Fit in 15\VIDEO_TS\VTS_01_0.VOB
Формат : MPEG-PS
Размер файла : 190 Мбайт
Продолжительность : 4 с. 40 мс.
Режим общего битрейта : Переменный
Общий поток : 395 Мбит/сек
Видео
Идентификатор : 224 (0xE0)
Формат : MPEG Video
Версия формата : Version 2
Профиль формата : Main@Main
Параметр BVOP формата : Да
Параметр матрицы формата : Выборочная
Параметр GOP формата : Variable
Продолжительность : 4 с. 40 мс.
Вид битрейта : Переменный
Битрейт : 387 Мбит/сек
Ширина : 720 пикселей
Высота : 576 пикселей
Соотношение сторон : 16:9
Частота кадров : 25,000 кадров/сек
Стандарт вещания : PAL
Цветовое пространство : YUV
Субдискретизация насыщенности : 4:2:0
Битовая глубина : 8 бит
Тип развёртки : Прогрессивная
Метод сжатия : С потерями
Бит/(Пиксели*Кадры) : 37.308
Временной код первого кадра : 01:00:00:00
Оригинал временного кода : Group of pictures header
Размер потока : 186 Мбайт (98%)
Основные цвета : BT.601 PAL
Характеристики трансфера : BT.470 System B, BT.470 System G
Коэффициенты матрицы : BT.601
Аудио
Идентификатор : 189 (0xBD)-128 (0x80)
Формат : AC-3
Формат/Информация : Audio Coding 3
Расширение режима : CM (complete main)
Параметр Endianness формата : Big
Режим смешивания : DVD-Video
Продолжительность : 4 с. 32 мс.
Вид битрейта : Постоянный
Битрейт : 192 Кбит/сек
Каналы : 2 канала
Расположение каналов : Front: L R
Частота : 48,0 КГц
Битовая глубина : 16 бит
Метод сжатия : С потерями
Размер потока : 94,5 Кбайт (0%)
Текст #1
Идентификатор : 189 (0xBD)-32 (0x20)
Формат : RLE
Формат/Информация : Run-length encoding
Режим смешивания : DVD-Video
Задержка видео : 6 с. 720 мс.
Текст #2
Идентификатор : 189 (0xBD)-33 (0x21)
Формат : RLE
Формат/Информация : Run-length encoding
Режим смешивания : DVD-Video
Задержка видео : 6 с. 720 мс.
Меню
Общее
Полное имя : Q:\Видео\Видеоуроки\Davina - Fit in 15\VIDEO_TS\VTS_01_1.VOB
Формат : MPEG-PS
Размер файла : 1024 Мбайт
Продолжительность : 53 с.
Режим общего битрейта : Переменный
Общий поток : 160 Мбит/сек
Видео
Идентификатор : 224 (0xE0)
Формат : MPEG Video
Версия формата : Version 2
Профиль формата : Main@Main
Параметр BVOP формата : Да
Параметр матрицы формата : Выборочная
Параметр GOP формата : Variable
Продолжительность : 53 с.
Вид битрейта : Переменный
Битрейт : 157 Мбит/сек
Ширина : 720 пикселей
Высота : 576 пикселей
Соотношение сторон : 16:9
Частота кадров : 25,000 кадров/сек
Стандарт вещания : PAL
Цветовое пространство : YUV
Субдискретизация насыщенности : 4:2:0
Битовая глубина : 8 бит
Метод сжатия : С потерями
Бит/(Пиксели*Кадры) : 15.108
Временной код первого кадра : 01:00:00:00
Оригинал временного кода : Group of pictures header
Размер потока : 1002 Мбайт (98%)
Аудио
Идентификатор : 189 (0xBD)-128 (0x80)
Формат : AC-3
Формат/Информация : Audio Coding 3
Расширение режима : CM (complete main)
Параметр Endianness формата : Big
Режим смешивания : DVD-Video
Продолжительность : 53 с.
Вид битрейта : Постоянный
Битрейт : 192 Кбит/сек
Каналы : 2 канала
Расположение каналов : Front: L R
Частота : 48,0 КГц
Битовая глубина : 16 бит
Метод сжатия : С потерями
Размер потока : 1,22 Мбайт (0%)
Текст
Идентификатор : 189 (0xBD)-32 (0x20)
Формат : RLE
Формат/Информация : Run-length encoding
Режим смешивания : DVD-Video
Продолжительность : 52 с.
Меню
Общее
Полное имя : Q:\Видео\Видеоуроки\Davina - Fit in 15\VIDEO_TS\VTS_01_2.VOB
Формат : MPEG-PS
Размер файла : 1024 Мбайт
Продолжительность : 6 м. 47 с.
Режим общего битрейта : Переменный
Общий поток : 21,1 Мбит/сек
Видео
Идентификатор : 224 (0xE0)
Формат : MPEG Video
Версия формата : Version 2
Профиль формата : Main@Main
Параметр BVOP формата : Да
Параметр матрицы формата : Выборочная
Параметр GOP формата : Variable
Продолжительность : 6 м. 46 с.
Вид битрейта : Переменный
Битрейт : 20,5 Мбит/сек
Максимальный битрейт : 8000 Кбит/сек
Ширина : 720 пикселей
Высота : 576 пикселей
Соотношение сторон : 16:9
Частота кадров : 25,000 кадров/сек
Стандарт вещания : PAL
Цветовое пространство : YUV
Субдискретизация насыщенности : 4:2:0
Битовая глубина : 8 бит
Тип развёртки : Чересстрочная
Порядок развёртки : Верхнее поле первое
Метод сжатия : С потерями
Бит/(Пиксели*Кадры) : 1.976
Временной код первого кадра : 10:25:51:21
Оригинал временного кода : Group of pictures header
Размер потока : 994 Мбайт (97%)
Аудио
Идентификатор : 189 (0xBD)-128 (0x80)
Формат : AC-3
Формат/Информация : Audio Coding 3
Расширение режима : CM (complete main)
Параметр Endianness формата : Big
Режим смешивания : DVD-Video
Продолжительность : 6 м. 47 с.
Вид битрейта : Постоянный
Битрейт : 192 Кбит/сек
Каналы : 2 канала
Расположение каналов : Front: L R
Частота : 48,0 КГц
Битовая глубина : 16 бит
Метод сжатия : С потерями
Задержка видео : -400 мс.
Размер потока : 9,32 Мбайт (1%)
Текст
Идентификатор : 189 (0xBD)-32 (0x20)
Формат : RLE
Формат/Информация : Run-length encoding
Режим смешивания : DVD-Video
Продолжительность : 6 м. 44 с.
Задержка видео : 1 с. 240 мс.
Меню
Общее
Полное имя : Q:\Видео\Видеоуроки\Davina - Fit in 15\VIDEO_TS\VTS_01_3.VOB
Формат : MPEG-PS
Размер файла : 1024 Мбайт
Продолжительность : 5 м. 27 с.
Режим общего битрейта : Переменный
Общий поток : 26,2 Мбит/сек
Видео
Идентификатор : 224 (0xE0)
Формат : MPEG Video
Версия формата : Version 2
Профиль формата : Main@Main
Параметр BVOP формата : Да
Параметр матрицы формата : Выборочная
Параметр GOP формата : Variable
Продолжительность : 5 м. 27 с.
Вид битрейта : Переменный
Битрейт : 25,5 Мбит/сек
Максимальный битрейт : 8000 Кбит/сек
Ширина : 720 пикселей
Высота : 576 пикселей
Соотношение сторон : 16:9
Частота кадров : 25,000 кадров/сек
Стандарт вещания : PAL
Цветовое пространство : YUV
Субдискретизация насыщенности : 4:2:0
Битовая глубина : 8 бит
Тип развёртки : Чересстрочная
Порядок развёртки : Верхнее поле первое
Метод сжатия : С потерями
Бит/(Пиксели*Кадры) : 2.459
Временной код первого кадра : 10:48:38:24
Оригинал временного кода : Group of pictures header
Размер потока : 996 Мбайт (97%)
Аудио
Идентификатор : 189 (0xBD)-128 (0x80)
Формат : AC-3
Формат/Информация : Audio Coding 3
Расширение режима : CM (complete main)
Параметр Endianness формата : Big
Режим смешивания : DVD-Video
Продолжительность : 5 м. 27 с.
Вид битрейта : Постоянный
Битрейт : 192 Кбит/сек
Каналы : 2 канала
Расположение каналов : Front: L R
Частота : 48,0 КГц
Битовая глубина : 16 бит
Метод сжатия : С потерями
Задержка видео : -448 мс.
Размер потока : 7,50 Мбайт (1%)
Текст
Идентификатор : 189 (0xBD)-32 (0x20)
Формат : RLE
Формат/Информация : Run-length encoding
Режим смешивания : DVD-Video
Задержка видео : 5 с. 160 мс.
Меню
Общее
Полное имя : Q:\Видео\Видеоуроки\Davina - Fit in 15\VIDEO_TS\VTS_01_4.VOB
Формат : MPEG-PS
Размер файла : 1024 Мбайт
Продолжительность : 4 м. 3 с.
Режим общего битрейта : Переменный
Общий поток : 35,3 Мбит/сек
Видео
Идентификатор : 224 (0xE0)
Формат : MPEG Video
Версия формата : Version 2
Профиль формата : Main@Main
Параметр BVOP формата : Да
Параметр матрицы формата : Выборочная
Параметр GOP формата : Variable
Продолжительность : 4 м. 3 с.
Вид битрейта : Переменный
Битрейт : 34,4 Мбит/сек
Максимальный битрейт : 8000 Кбит/сек
Ширина : 720 пикселей
Высота : 576 пикселей
Соотношение сторон : 16:9
Частота кадров : 25,000 кадров/сек
Стандарт вещания : PAL
Цветовое пространство : YUV
Субдискретизация насыщенности : 4:2:0
Битовая глубина : 8 бит
Тип развёртки : Чересстрочная
Порядок развёртки : Верхнее поле первое
Метод сжатия : С потерями
Бит/(Пиксели*Кадры) : 3.320
Временной код первого кадра : 11:11:06:17
Оригинал временного кода : Group of pictures header
Размер потока : 998 Мбайт (97%)
Аудио
Идентификатор : 189 (0xBD)-128 (0x80)
Формат : AC-3
Формат/Информация : Audio Coding 3
Расширение режима : CM (complete main)
Параметр Endianness формата : Big
Режим смешивания : DVD-Video
Продолжительность : 4 м. 3 с.
Вид битрейта : Постоянный
Битрейт : 192 Кбит/сек
Каналы : 2 канала
Расположение каналов : Front: L R
Частота : 48,0 КГц
Битовая глубина : 16 бит
Метод сжатия : С потерями
Задержка видео : -328 мс.
Размер потока : 5,57 Мбайт (1%)
Текст
Идентификатор : 189 (0xBD)-32 (0x20)
Формат : RLE
Формат/Информация : Run-length encoding
Режим смешивания : DVD-Video
Продолжительность : 4 м. 1 с.
Задержка видео : 400 мс.
Меню
Общее
Полное имя : Q:\Видео\Видеоуроки\Davina - Fit in 15\VIDEO_TS\VTS_01_5.VOB
Формат : MPEG-PS
Размер файла : 149 Мбайт
Режим общего битрейта : Переменный
Видео
Идентификатор : 224 (0xE0)
Формат : MPEG Video
Версия формата : Version 2
Профиль формата : Main@Main
Параметр BVOP формата : Да
Параметр матрицы формата : Выборочная
Параметр GOP формата : Variable
Вид битрейта : Переменный
Максимальный битрейт : 8000 Кбит/сек
Ширина : 720 пикселей
Высота : 576 пикселей
Соотношение сторон : 16:9
Частота кадров : 25,000 кадров/сек
Стандарт вещания : PAL
Цветовое пространство : YUV
Субдискретизация насыщенности : 4:2:0
Битовая глубина : 8 бит
Тип развёртки : Чересстрочная
Порядок развёртки : Верхнее поле первое
Метод сжатия : С потерями
Временной код первого кадра : 11:34:10:03
Оригинал временного кода : Group of pictures header
Аудио
Идентификатор : 189 (0xBD)-128 (0x80)
Формат : AC-3
Формат/Информация : Audio Coding 3
Расширение режима : CM (complete main)
Параметр Endianness формата : Big
Режим смешивания : DVD-Video
Вид битрейта : Постоянный
Битрейт : 192 Кбит/сек
Каналы : 2 канала
Расположение каналов : Front: L R
Частота : 48,0 КГц
Битовая глубина : 16 бит
Метод сжатия : С потерями
Задержка видео : -504 мс.
Текст
Идентификатор : 189 (0xBD)-32 (0x20)
Формат : RLE
Формат/Информация : Run-length encoding
Режим смешивания : DVD-Video
Задержка видео : 5 с. 880 мс.
Меню
Общее
Полное имя : Q:\Видео\Видеоуроки\Davina - Fit in 15\VIDEO_TS\VTS_02_0.BUP
Формат : DVD Video
Профиль формата : Program
Размер файла : 18,0 Кбайт
Продолжительность : 30 с.
Режим общего битрейта : Переменный
Общий поток : 4763 бит/сек
Видео
Идентификатор : 224 (0xE0)
Формат : MPEG Video
Версия формата : Version 2
Продолжительность : 30 с.
Вид битрейта : Переменный
Ширина : 720 пикселей
Высота : 576 пикселей
Соотношение сторон : 16:9
Частота кадров : 25,000 кадров/сек
Стандарт вещания : PAL
Метод сжатия : С потерями
Аудио
Идентификатор : 128 (0x80)
Формат : AC-3
Формат/Информация : Audio Coding 3
Продолжительность : 30 с.
Каналы : 2 канала
Частота : 48,0 КГц
Метод сжатия : С потерями
Язык : English
Меню
Продолжительность : 30 с.
00:00:00.000 : Chapter 1
00:00:08.000 : Chapter 2
List (Audio) : 0
Общее
Полное имя : Q:\Видео\Видеоуроки\Davina - Fit in 15\VIDEO_TS\VTS_02_0.IFO
Формат : DVD Video
Профиль формата : Program
Размер файла : 18,0 Кбайт
Продолжительность : 30 с.
Режим общего битрейта : Переменный
Общий поток : 4763 бит/сек
Видео
Идентификатор : 224 (0xE0)
Формат : MPEG Video
Версия формата : Version 2
Продолжительность : 30 с.
Вид битрейта : Переменный
Ширина : 720 пикселей
Высота : 576 пикселей
Соотношение сторон : 16:9
Частота кадров : 25,000 кадров/сек
Стандарт вещания : PAL
Метод сжатия : С потерями
Аудио
Идентификатор : 128 (0x80)
Формат : AC-3
Формат/Информация : Audio Coding 3
Продолжительность : 30 с.
Каналы : 2 канала
Частота : 48,0 КГц
Метод сжатия : С потерями
Язык : English
Меню
Продолжительность : 30 с.
00:00:00.000 : Chapter 1
00:00:08.000 : Chapter 2
List (Audio) : 0
Общее
Полное имя : Q:\Видео\Видеоуроки\Davina - Fit in 15\VIDEO_TS\VTS_02_0.VOB
Формат : MPEG-PS
Размер файла : 300 Кбайт
Продолжительность : 480 мс.
Общий поток : 5120 Кбит/сек
Видео
Идентификатор : 224 (0xE0)
Формат : MPEG Video
Версия формата : Version 2
Профиль формата : Main@Main
Параметр BVOP формата : Да
Параметр матрицы формата : Выборочная
Продолжительность : 480 мс.
Максимальный битрейт : 6000 Кбит/сек
Ширина : 720 пикселей
Высота : 576 пикселей
Соотношение сторон : 16:9
Частота кадров : 25,000 кадров/сек
Стандарт вещания : PAL
Цветовое пространство : YUV
Субдискретизация насыщенности : 4:2:0
Битовая глубина : 8 бит
Тип развёртки : Прогрессивная
Порядок развёртки : Верхнее поле первое
Метод сжатия : С потерями
Временной код первого кадра : 01:00:00:00
Оригинал временного кода : Group of pictures header
Меню
Общее
Полное имя : Q:\Видео\Видеоуроки\Davina - Fit in 15\VIDEO_TS\VTS_02_1.VOB
Формат : MPEG-PS
Размер файла : 27,7 Мбайт
Продолжительность : 22 с.
Режим общего битрейта : Переменный
Общий поток : 10,1 Мбит/сек
Видео
Идентификатор : 224 (0xE0)
Формат : MPEG Video
Версия формата : Version 2
Профиль формата : Main@Main
Параметр BVOP формата : Да
Параметр матрицы формата : Выборочная
Параметр GOP формата : Variable
Продолжительность : 22 с.
Вид битрейта : Переменный
Битрейт : 9708 Кбит/сек
Максимальный битрейт : 8000 Кбит/сек
Ширина : 720 пикселей
Высота : 576 пикселей
Соотношение сторон : 16:9
Частота кадров : 25,000 кадров/сек
Стандарт вещания : PAL
Цветовое пространство : YUV
Субдискретизация насыщенности : 4:2:0
Битовая глубина : 8 бит
Тип развёртки : Прогрессивная
Метод сжатия : С потерями
Бит/(Пиксели*Кадры) : 0.936
Временной код первого кадра : 00:00:00:00
Оригинал временного кода : Group of pictures header
Размер потока : 26,5 Мбайт (96%)
Основные цвета : BT.601 PAL
Характеристики трансфера : BT.470 System B, BT.470 System G
Коэффициенты матрицы : BT.601
Аудио
Идентификатор : 189 (0xBD)-128 (0x80)
Формат : AC-3
Формат/Информация : Audio Coding 3
Расширение режима : CM (complete main)
Параметр Endianness формата : Big
Режим смешивания : DVD-Video
Продолжительность : 22 с.
Вид битрейта : Постоянный
Битрейт : 224 Кбит/сек
Каналы : 2 канала
Расположение каналов : Front: L R
Частота : 48,0 КГц
Битовая глубина : 16 бит
Метод сжатия : С потерями
Задержка видео : -40 мс.
Размер потока : 627 Кбайт (2%)
Меню

Скриншоты

[teatrix.ru].t13366.torrent 
Торрент: Зарегистрирован [ 2016-01-22 01:35 ] · 62A9156E58CE7F40394BA90E9EB78317B027F2E8

Скачать .torrent

Скачать

12 KB

Статус: проверено
Скачан: 0 раз
Размер: 4.36 GB
terms.php



Быстрый ответ

Имя:

      
Для отправки сообщений необходимо включить JavaScript
Показать сообщения:    

Текущее время: 09-Дек 12:44

Часовой пояс: UTC + 3


Вы можете начинать темы
Вы можете отвечать на сообщения
Вы не можете редактировать свои сообщения
Вы не можете удалять свои сообщения
Вы не можете голосовать в опросах
Вы не можете прикреплять файлы к сообщениям
Вы можете скачивать файлы