Autumn Calabrese - 21 Day Fix / Autumn Calabrese - 21 Day Fix [2014, фитнес, DVDRip, ENG] (Видеоурок)


Статистика раздачи [Обновить пиров]
Размер:  11.33 GB   |    Зарегистрирован:  10 месяцев 17 дней   |    Скачан:  0 раз

Полного источника не было: Никогда

 
   
 
 
 

[Цитировать]

Autumn Calabrese - 21 Day Fix / Autumn Calabrese - 21 Day Fix
Тематика: фитнес
Тип раздаваемого материала: Видеоурок
Продолжительность: 04:23:32
Год выпуска: 2014
Язык: Английский
Перевод: Отсутствует
Описание: Now there's an easy-to-follow nutrition and fitness program that makes losing weight so simple, you can see results fast—up to 15 pounds in just 21 days. 21 Day Fix takes all the guesswork out of weight loss—there's no counting, no guessing, and no wondering.
The 21 Day Fix program is a unique portion-control system combined with easy-to-follow 30-minute workouts that fit into anyone's busy schedule. Trainer Autumn Calabrese shares her passion for food and fitness as she shows you how to make simple choices that add up to life-changing results.
Здесь и сейчас удивительно простая программа по фитнесу и питанию, позволяющая сбросить вес ещё проще. Результаты не заставят себя долго ждать - до 7 кг всего за 21 день. Программа 21 day fix берёт все заботы на себя - вам не нужно ничего придумывать, угадывать самому.
Программа 21 day fix - это уникальная система питания, комбинированная с 30-минутными тренировками. Каждый может найти время для тренировок в своём загруженном распорядке дня. Тренер Autumn Calabrese делится с вами знанием и страстью к тренировкам и правильному питанию, ведь она знает как простые решения могут дать значительные результаты.
Доп. информация: Список тренировок:
- Total Body Cardio Fix
- Upper Fix
- Lower Fix
- Pilates Fix
- Cardio Fix
- Yoga Fix
- Plyo Fix
- 10 Minutes Fix for Abs
- Dirty 30
Качество: DVDRip
Формат: MKV
Видео кодек: MPEG2
Аудио кодек: AC3
Видео: MPEG 2, 720x480 (16:9), 5100 kbps, 29.970 fps
Аудио: AC-3, 256 kbps, 48 kHz, 2 ch
Аудио 2: AC-3, 256 kbps, 48 kHz, 2 ch

Скриншоты

Отчёт MediaInfo

Общее
Уникальный идентификатор : 179645656305949468614445829711199671274 (0x87267EB0D72DF5D6098A7E7D51B713EA)
Полное имя : 10 Minute Fix For Abs.mkv
Формат : Matroska
Версия формата : Version 2
Размер файла : 461 Мбайт
Продолжительность : 11 м.
Режим общего битрейта : Переменный
Общий поток : 5726 Кбит/сек
Название фильма : 21 Day Fix - Disc 1
Дата кодирования : UTC 2014-04-05 04:53:16
Программа кодирования : MakeMKV v1.8.9 darwin(x86-release)
Библиотека кодирования : libmakemkv v1.8.9 (1.3.0/1.4.1) darwin(x86-release)
Видео
Идентификатор : 1
Формат : MPEG Video
Версия формата : Version 2
Профиль формата : Main@Main
Параметр BVOP формата : Нет
Параметр матрицы формата : Выборочная
Идентификатор кодека : V_MPEG2
Идентификатор кодека/Информация : MPEG 1 or 2 Video
Продолжительность : 11 м.
Вид битрейта : Переменный
Битрейт : 5100 Кбит/сек
Максимальный битрейт : 9800 Кбит/сек
Ширина : 720 пикселей
Высота : 480 пикселей
Соотношение сторон : 16:9
Режим частоты кадров : Постоянный
Частота кадров : 29,970 кадров/сек
Стандарт вещания : NTSC
Цветовое пространство : YUV
Субдискретизация насыщенности : 4:2:0
Битовая глубина : 8 бит
Тип развёртки : Чересстрочная
Порядок развёртки : Верхнее поле первое
Метод сжатия : С потерями
Бит/(Пиксели*Кадры) : 0.492
Временной код первого кадра : 00:59:59;02
Оригинал временного кода : Group of pictures header
Размер потока : 411 Мбайт (89%)
Язык : English
Default : Нет
Forced : Нет
Аудио #1
Идентификатор : 2
Формат : AC-3
Формат/Информация : Audio Coding 3
Расширение режима : CM (complete main)
Параметр Endianness формата : Big
Идентификатор кодека : A_AC3
Продолжительность : 11 м.
Вид битрейта : Постоянный
Битрейт : 256 Кбит/сек
Каналы : 2 канала
Расположение каналов : Front: L R
Частота : 48,0 КГц
Битовая глубина : 16 бит
Метод сжатия : С потерями
Размер потока : 20,6 Мбайт (4%)
Заголовок : Stereo
Язык : English
Default : Да
Forced : Нет
Аудио #2
Идентификатор : 3
Формат : AC-3
Формат/Информация : Audio Coding 3
Расширение режима : CM (complete main)
Параметр Endianness формата : Big
Идентификатор кодека : A_AC3
Продолжительность : 11 м.
Вид битрейта : Постоянный
Битрейт : 256 Кбит/сек
Каналы : 2 канала
Расположение каналов : Front: L R
Частота : 48,0 КГц
Битовая глубина : 16 бит
Метод сжатия : С потерями
Размер потока : 20,6 Мбайт (4%)
Заголовок : Stereo
Язык : English
Default : Нет
Forced : Нет
Текст
Идентификатор : 4
Формат : VobSub
Идентификатор кодека : S_VOBSUB
Идентификатор кодека/Информация : The same subtitle format used on DVDs
Язык : English
Default : Да
Forced : Нет
Меню
00:00:00.000 : en:Chapter 01
00:00:06.940 : en:Chapter 02
00:00:16.983 : en:Chapter 03
00:00:37.771 : en:Chapter 04
00:01:04.397 : en:Chapter 05
00:01:26.119 : en:Chapter 06
00:02:11.631 : en:Chapter 07
00:02:35.421 : en:Chapter 08
00:03:15.662 : en:Chapter 09
00:04:33.373 : en:Chapter 10
00:05:24.457 : en:Chapter 11
00:05:48.915 : en:Chapter 12
00:06:11.637 : en:Chapter 13
00:06:34.627 : en:Chapter 14
00:07:19.972 : en:Chapter 15
00:07:41.294 : en:Chapter 16
00:08:12.859 : en:Chapter 17
00:09:08.881 : en:Chapter 18
00:09:58.898 : en:Chapter 19
00:10:26.759 : en:Chapter 20
00:10:41.641 : en:Chapter 21
Общее
Уникальный идентификатор : 115005621438853274131277781783841876550 (0x568546EA23E0436756E4F5641B642A46)
Полное имя : Cardio Fix.mkv
Формат : Matroska
Версия формата : Version 2
Размер файла : 1,50 Гбайт
Продолжительность : 32 м.
Режим общего битрейта : Переменный
Общий поток : 6528 Кбит/сек
Название фильма : 21 Day Fix - Disc 2
Дата кодирования : UTC 2014-04-05 04:07:03
Программа кодирования : MakeMKV v1.8.9 darwin(x86-release)
Библиотека кодирования : libmakemkv v1.8.9 (1.3.0/1.4.1) darwin(x86-release)
Видео
Идентификатор : 1
Формат : MPEG Video
Версия формата : Version 2
Профиль формата : Main@Main
Параметр BVOP формата : Нет
Параметр матрицы формата : Выборочная
Идентификатор кодека : V_MPEG2
Идентификатор кодека/Информация : MPEG 1 or 2 Video
Продолжительность : 32 м.
Вид битрейта : Переменный
Битрейт : 5886 Кбит/сек
Максимальный битрейт : 9800 Кбит/сек
Ширина : 720 пикселей
Высота : 480 пикселей
Соотношение сторон : 16:9
Режим частоты кадров : Постоянный
Частота кадров : 29,970 кадров/сек
Стандарт вещания : NTSC
Цветовое пространство : YUV
Субдискретизация насыщенности : 4:2:0
Битовая глубина : 8 бит
Тип развёртки : Чересстрочная
Порядок развёртки : Верхнее поле первое
Метод сжатия : С потерями
Бит/(Пиксели*Кадры) : 0.568
Временной код первого кадра : 00:59:59;02
Оригинал временного кода : Group of pictures header
Размер потока : 1,35 Гбайт (90%)
Язык : English
Default : Нет
Forced : Нет
Аудио #1
Идентификатор : 2
Формат : AC-3
Формат/Информация : Audio Coding 3
Расширение режима : CM (complete main)
Параметр Endianness формата : Big
Идентификатор кодека : A_AC3
Продолжительность : 32 м.
Вид битрейта : Постоянный
Битрейт : 256 Кбит/сек
Каналы : 2 канала
Расположение каналов : Front: L R
Частота : 48,0 КГц
Битовая глубина : 16 бит
Метод сжатия : С потерями
Размер потока : 60,2 Мбайт (4%)
Заголовок : Stereo
Язык : English
Default : Да
Forced : Нет
Аудио #2
Идентификатор : 3
Формат : AC-3
Формат/Информация : Audio Coding 3
Расширение режима : CM (complete main)
Параметр Endianness формата : Big
Идентификатор кодека : A_AC3
Продолжительность : 32 м.
Вид битрейта : Постоянный
Битрейт : 256 Кбит/сек
Каналы : 2 канала
Расположение каналов : Front: L R
Частота : 48,0 КГц
Битовая глубина : 16 бит
Метод сжатия : С потерями
Размер потока : 60,2 Мбайт (4%)
Заголовок : Stereo
Язык : English
Default : Нет
Forced : Нет
Текст
Идентификатор : 4
Формат : VobSub
Идентификатор кодека : S_VOBSUB
Идентификатор кодека/Информация : The same subtitle format used on DVDs
Язык : English
Default : Да
Forced : Нет
Меню
00:00:00.000 : en:Chapter 01
00:00:06.973 : en:Chapter 02
00:00:16.950 : en:Chapter 03
00:00:41.441 : en:Chapter 04
00:04:00.473 : en:Chapter 05
00:05:18.418 : en:Chapter 06
00:06:43.136 : en:Chapter 07
00:08:03.015 : en:Chapter 08
00:09:31.871 : en:Chapter 09
00:11:00.192 : en:Chapter 10
00:12:26.512 : en:Chapter 11
00:13:52.364 : en:Chapter 12
00:15:13.779 : en:Chapter 13
00:16:42.167 : en:Chapter 14
00:18:07.052 : en:Chapter 15
00:19:25.330 : en:Chapter 16
00:21:04.396 : en:Chapter 17
00:22:32.951 : en:Chapter 18
00:23:54.800 : en:Chapter 19
00:25:15.146 : en:Chapter 20
00:27:03.755 : en:Chapter 21
00:29:33.371 : en:Chapter 22
Общее
Уникальный идентификатор : 44408714822337271222585059583124946625 (0x2168CEAF9759A9E08B7B774185B1BEC1)
Полное имя : Dirty Thirty.mkv
Формат : Matroska
Версия формата : Version 2
Размер файла : 1,30 Гбайт
Продолжительность : 28 м.
Режим общего битрейта : Переменный
Общий поток : 6528 Кбит/сек
Название фильма : 21 Day Fix - Disc 2
Дата кодирования : UTC 2014-04-05 04:12:42
Программа кодирования : MakeMKV v1.8.9 darwin(x86-release)
Библиотека кодирования : libmakemkv v1.8.9 (1.3.0/1.4.1) darwin(x86-release)
Видео
Идентификатор : 1
Формат : MPEG Video
Версия формата : Version 2
Профиль формата : Main@Main
Параметр BVOP формата : Нет
Параметр матрицы формата : Выборочная
Идентификатор кодека : V_MPEG2
Идентификатор кодека/Информация : MPEG 1 or 2 Video
Продолжительность : 28 м.
Вид битрейта : Переменный
Битрейт : 5886 Кбит/сек
Максимальный битрейт : 9800 Кбит/сек
Ширина : 720 пикселей
Высота : 480 пикселей
Соотношение сторон : 16:9
Режим частоты кадров : Постоянный
Частота кадров : 29,970 кадров/сек
Стандарт вещания : NTSC
Цветовое пространство : YUV
Субдискретизация насыщенности : 4:2:0
Битовая глубина : 8 бит
Тип развёртки : Чересстрочная
Порядок развёртки : Верхнее поле первое
Метод сжатия : С потерями
Бит/(Пиксели*Кадры) : 0.568
Временной код первого кадра : 00:59:59;00
Оригинал временного кода : Group of pictures header
Размер потока : 1,18 Гбайт (90%)
Язык : English
Default : Нет
Forced : Нет
Аудио #1
Идентификатор : 2
Формат : AC-3
Формат/Информация : Audio Coding 3
Расширение режима : CM (complete main)
Параметр Endianness формата : Big
Идентификатор кодека : A_AC3
Продолжительность : 28 м.
Вид битрейта : Постоянный
Битрейт : 256 Кбит/сек
Каналы : 2 канала
Расположение каналов : Front: L R
Частота : 48,0 КГц
Битовая глубина : 16 бит
Метод сжатия : С потерями
Задержка видео : 67 мс.
Размер потока : 52,4 Мбайт (4%)
Заголовок : Stereo
Язык : English
Default : Да
Forced : Нет
Аудио #2
Идентификатор : 3
Формат : AC-3
Формат/Информация : Audio Coding 3
Расширение режима : CM (complete main)
Параметр Endianness формата : Big
Идентификатор кодека : A_AC3
Продолжительность : 28 м.
Вид битрейта : Постоянный
Битрейт : 256 Кбит/сек
Каналы : 2 канала
Расположение каналов : Front: L R
Частота : 48,0 КГц
Битовая глубина : 16 бит
Метод сжатия : С потерями
Задержка видео : 67 мс.
Размер потока : 52,4 Мбайт (4%)
Заголовок : Stereo
Язык : English
Default : Нет
Forced : Нет
Текст
Идентификатор : 4
Формат : VobSub
Идентификатор кодека : S_VOBSUB
Идентификатор кодека/Информация : The same subtitle format used on DVDs
Язык : English
Default : Да
Forced : Нет
Меню
00:00:00.000 : en:Chapter 01
00:00:07.040 : en:Chapter 02
00:00:17.017 : en:Chapter 03
00:00:45.145 : en:Chapter 04
00:03:59.539 : en:Chapter 05
00:05:26.893 : en:Chapter 06
00:06:42.869 : en:Chapter 07
00:08:00.947 : en:Chapter 08
00:09:32.138 : en:Chapter 09
00:10:59.759 : en:Chapter 10
00:12:21.674 : en:Chapter 11
00:13:34.246 : en:Chapter 12
00:15:00.099 : en:Chapter 13
00:16:25.784 : en:Chapter 14
00:17:42.094 : en:Chapter 15
00:19:02.274 : en:Chapter 16
00:20:43.275 : en:Chapter 17
00:22:15.400 : en:Chapter 18
00:23:33.645 : en:Chapter 19
00:24:47.085 : en:Chapter 20
00:25:50.715 : en:Chapter 21
Общее
Полное имя : Guides\3dayquickfix.pdf
Размер файла : 3,55 Мбайт
Общее
Полное имя : Guides\ContainerSizes.pdf
Размер файла : 21,4 Кбайт
Общее
Полное имя : Guides\eating plan.pdf
Размер файла : 14,1 Мбайт
Общее
Полное имя : Guides\workout_sheet-21df_digital.pdf
Размер файла : 1,28 Мбайт
Общее
Полное имя : Guides\workout_sheet-21df_printable.pdf
Размер файла : 418 Кбайт
Общее
Уникальный идентификатор : 234168138564279102965119219343845804982 (0xB02B249C3012A6A342DABE0956FCCBB6)
Полное имя : Lower Fix.mkv
Формат : Matroska
Версия формата : Version 2
Размер файла : 1,24 Гбайт
Продолжительность : 30 м.
Режим общего битрейта : Переменный
Общий поток : 5728 Кбит/сек
Название фильма : 21 Day Fix - Disc 1
Дата кодирования : UTC 2014-04-05 04:42:20
Программа кодирования : MakeMKV v1.8.9 darwin(x86-release)
Библиотека кодирования : libmakemkv v1.8.9 (1.3.0/1.4.1) darwin(x86-release)
Видео
Идентификатор : 1
Формат : MPEG Video
Версия формата : Version 2
Профиль формата : Main@Main
Параметр BVOP формата : Нет
Параметр матрицы формата : Выборочная
Идентификатор кодека : V_MPEG2
Идентификатор кодека/Информация : MPEG 1 or 2 Video
Продолжительность : 30 м.
Вид битрейта : Переменный
Битрейт : 5102 Кбит/сек
Максимальный битрейт : 9800 Кбит/сек
Ширина : 720 пикселей
Высота : 480 пикселей
Соотношение сторон : 16:9
Режим частоты кадров : Постоянный
Частота кадров : 29,970 кадров/сек
Стандарт вещания : NTSC
Цветовое пространство : YUV
Субдискретизация насыщенности : 4:2:0
Битовая глубина : 8 бит
Тип развёртки : Чересстрочная
Порядок развёртки : Верхнее поле первое
Метод сжатия : С потерями
Бит/(Пиксели*Кадры) : 0.493
Временной код первого кадра : 00:59:59;02
Оригинал временного кода : Group of pictures header
Размер потока : 1,10 Гбайт (89%)
Язык : English
Default : Нет
Forced : Нет
Аудио #1
Идентификатор : 2
Формат : AC-3
Формат/Информация : Audio Coding 3
Расширение режима : CM (complete main)
Параметр Endianness формата : Big
Идентификатор кодека : A_AC3
Продолжительность : 30 м.
Вид битрейта : Постоянный
Битрейт : 256 Кбит/сек
Каналы : 2 канала
Расположение каналов : Front: L R
Частота : 48,0 КГц
Битовая глубина : 16 бит
Метод сжатия : С потерями
Размер потока : 56,7 Мбайт (4%)
Заголовок : Stereo
Язык : English
Default : Да
Forced : Нет
Аудио #2
Идентификатор : 3
Формат : AC-3
Формат/Информация : Audio Coding 3
Расширение режима : CM (complete main)
Параметр Endianness формата : Big
Идентификатор кодека : A_AC3
Продолжительность : 30 м.
Вид битрейта : Постоянный
Битрейт : 256 Кбит/сек
Каналы : 2 канала
Расположение каналов : Front: L R
Частота : 48,0 КГц
Битовая глубина : 16 бит
Метод сжатия : С потерями
Размер потока : 56,7 Мбайт (4%)
Заголовок : Stereo
Язык : English
Default : Нет
Forced : Нет
Текст
Идентификатор : 4
Формат : VobSub
Идентификатор кодека : S_VOBSUB
Идентификатор кодека/Информация : The same subtitle format used on DVDs
Язык : English
Default : Да
Forced : Нет
Меню
00:00:00.000 : en:Chapter 01
00:00:06.973 : en:Chapter 02
00:00:16.883 : en:Chapter 03
00:00:47.814 : en:Chapter 04
00:04:02.308 : en:Chapter 05
00:05:22.722 : en:Chapter 06
00:06:40.099 : en:Chapter 07
00:08:00.112 : en:Chapter 08
00:09:25.531 : en:Chapter 09
00:10:42.274 : en:Chapter 10
00:12:04.523 : en:Chapter 11
00:13:16.095 : en:Chapter 12
00:14:51.857 : en:Chapter 13
00:16:15.574 : en:Chapter 14
00:17:38.457 : en:Chapter 15
00:18:54.700 : en:Chapter 16
00:20:31.563 : en:Chapter 17
00:21:48.907 : en:Chapter 18
00:23:09.254 : en:Chapter 19
00:24:17.789 : en:Chapter 20
00:25:50.248 : en:Chapter 21
00:28:05.684 : en:Chapter 22
Общее
Уникальный идентификатор : 228003522325682346979753003789220513021 (0xAB87E1903F25D84BCC0E5CD2E4AF04FD)
Полное имя : Pilates Fix.mkv
Формат : Matroska
Версия формата : Version 2
Размер файла : 1,35 Гбайт
Продолжительность : 33 м.
Режим общего битрейта : Переменный
Общий поток : 5727 Кбит/сек
Название фильма : 21 Day Fix - Disc 1
Дата кодирования : UTC 2014-04-05 04:47:34
Программа кодирования : MakeMKV v1.8.9 darwin(x86-release)
Библиотека кодирования : libmakemkv v1.8.9 (1.3.0/1.4.1) darwin(x86-release)
Видео
Идентификатор : 1
Формат : MPEG Video
Версия формата : Version 2
Профиль формата : Main@Main
Параметр BVOP формата : Нет
Параметр матрицы формата : Выборочная
Идентификатор кодека : V_MPEG2
Идентификатор кодека/Информация : MPEG 1 or 2 Video
Продолжительность : 33 м.
Вид битрейта : Переменный
Битрейт : 5101 Кбит/сек
Максимальный битрейт : 9800 Кбит/сек
Ширина : 720 пикселей
Высота : 480 пикселей
Соотношение сторон : 16:9
Режим частоты кадров : Постоянный
Частота кадров : 29,970 кадров/сек
Стандарт вещания : NTSC
Цветовое пространство : YUV
Субдискретизация насыщенности : 4:2:0
Битовая глубина : 8 бит
Тип развёртки : Чересстрочная
Порядок развёртки : Верхнее поле первое
Метод сжатия : С потерями
Бит/(Пиксели*Кадры) : 0.492
Временной код первого кадра : 00:59:59;02
Оригинал временного кода : Group of pictures header
Размер потока : 1,21 Гбайт (89%)
Язык : English
Default : Нет
Forced : Нет
Аудио #1
Идентификатор : 2
Формат : AC-3
Формат/Информация : Audio Coding 3
Расширение режима : CM (complete main)
Параметр Endianness формата : Big
Идентификатор кодека : A_AC3
Продолжительность : 33 м.
Вид битрейта : Постоянный
Битрейт : 256 Кбит/сек
Каналы : 2 канала
Расположение каналов : Front: L R
Частота : 48,0 КГц
Битовая глубина : 16 бит
Метод сжатия : С потерями
Размер потока : 62,0 Мбайт (4%)
Заголовок : Stereo
Язык : English
Default : Да
Forced : Нет
Аудио #2
Идентификатор : 3
Формат : AC-3
Формат/Информация : Audio Coding 3
Расширение режима : CM (complete main)
Параметр Endianness формата : Big
Идентификатор кодека : A_AC3
Продолжительность : 33 м.
Вид битрейта : Постоянный
Битрейт : 256 Кбит/сек
Каналы : 2 канала
Расположение каналов : Front: L R
Частота : 48,0 КГц
Битовая глубина : 16 бит
Метод сжатия : С потерями
Размер потока : 62,0 Мбайт (4%)
Заголовок : Stereo
Язык : English
Default : Нет
Forced : Нет
Текст
Идентификатор : 4
Формат : VobSub
Идентификатор кодека : S_VOBSUB
Идентификатор кодека/Информация : The same subtitle format used on DVDs
Язык : English
Default : Да
Forced : Нет
Меню
00:00:00.000 : en:Chapter 01
00:00:06.973 : en:Chapter 02
00:00:16.950 : en:Chapter 03
00:00:36.503 : en:Chapter 04
00:05:28.528 : en:Chapter 05
00:06:49.308 : en:Chapter 06
00:08:21.868 : en:Chapter 07
00:09:59.665 : en:Chapter 08
00:11:27.753 : en:Chapter 09
00:12:47.867 : en:Chapter 10
00:13:42.955 : en:Chapter 11
00:14:47.753 : en:Chapter 12
00:16:05.364 : en:Chapter 13
00:17:12.898 : en:Chapter 14
00:18:12.458 : en:Chapter 15
00:21:38.397 : en:Chapter 16
00:24:47.452 : en:Chapter 17
00:26:58.016 : en:Chapter 18
00:30:48.079 : en:Chapter 19
Общее
Уникальный идентификатор : 335208275332100590137370509338651259352 (0xFC2EC3F841C2EC28F50DA0F5F989F1D8)
Полное имя : Plyo Fix.mkv
Формат : Matroska
Версия формата : Version 2
Размер файла : 1,54 Гбайт
Продолжительность : 32 м.
Режим общего битрейта : Переменный
Общий поток : 6827 Кбит/сек
Название фильма : 21 Day Fix - Disc 4
Дата кодирования : UTC 2014-04-05 03:54:06
Программа кодирования : MakeMKV v1.8.9 darwin(x86-release)
Библиотека кодирования : libmakemkv v1.8.9 (1.3.0/1.4.1) darwin(x86-release)
Видео
Идентификатор : 1
Формат : MPEG Video
Версия формата : Version 2
Профиль формата : Main@Main
Параметр BVOP формата : Нет
Параметр матрицы формата : Выборочная
Идентификатор кодека : V_MPEG2
Идентификатор кодека/Информация : MPEG 1 or 2 Video
Вид битрейта : Переменный
Битрейт : 6179 Кбит/сек
Максимальный битрейт : 9800 Кбит/сек
Ширина : 720 пикселей
Высота : 480 пикселей
Соотношение сторон : 16:9
Режим частоты кадров : Переменный
Частота кадров в оригинале : 29,970 кадров/сек
Стандарт вещания : NTSC
Цветовое пространство : YUV
Субдискретизация насыщенности : 4:2:0
Битовая глубина : 8 бит
Тип развёртки : Прогрессивная
Порядок развёртки : Верхнее поле первое
Метод сжатия : С потерями
Временной код первого кадра : 00:59:43:00
Оригинал временного кода : Group of pictures header
Язык : English
Default : Нет
Forced : Нет
Аудио #1
Идентификатор : 2
Формат : AC-3
Формат/Информация : Audio Coding 3
Расширение режима : CM (complete main)
Параметр Endianness формата : Big
Идентификатор кодека : A_AC3
Продолжительность : 32 м.
Вид битрейта : Постоянный
Битрейт : 256 Кбит/сек
Каналы : 2 канала
Расположение каналов : Front: L R
Частота : 48,0 КГц
Битовая глубина : 16 бит
Метод сжатия : С потерями
Размер потока : 59,3 Мбайт (4%)
Заголовок : Stereo
Язык : English
Default : Да
Forced : Нет
Аудио #2
Идентификатор : 3
Формат : AC-3
Формат/Информация : Audio Coding 3
Расширение режима : CM (complete main)
Параметр Endianness формата : Big
Идентификатор кодека : A_AC3
Продолжительность : 32 м.
Вид битрейта : Постоянный
Битрейт : 256 Кбит/сек
Каналы : 2 канала
Расположение каналов : Front: L R
Частота : 48,0 КГц
Битовая глубина : 16 бит
Метод сжатия : С потерями
Размер потока : 59,3 Мбайт (4%)
Заголовок : Stereo
Язык : English
Default : Нет
Forced : Нет
Текст
Идентификатор : 4
Формат : VobSub
Идентификатор кодека : S_VOBSUB
Идентификатор кодека/Информация : The same subtitle format used on DVDs
Язык : English
Default : Да
Forced : Нет
Меню
00:00:00.000 : en:Chapter 01
00:00:07.007 : en:Chapter 02
00:00:17.017 : en:Chapter 03
00:00:46.713 : en:Chapter 04
00:04:33.439 : en:Chapter 05
00:05:34.334 : en:Chapter 06
00:06:35.561 : en:Chapter 07
00:07:35.955 : en:Chapter 08
00:08:35.181 : en:Chapter 09
00:09:37.944 : en:Chapter 10
00:10:45.478 : en:Chapter 11
00:11:46.939 : en:Chapter 12
00:12:50.936 : en:Chapter 13
00:13:55.167 : en:Chapter 14
00:14:57.229 : en:Chapter 15
00:16:00.793 : en:Chapter 16
00:17:03.522 : en:Chapter 17
00:18:07.252 : en:Chapter 18
00:19:08.647 : en:Chapter 19
00:20:22.054 : en:Chapter 20
00:21:32.324 : en:Chapter 21
00:23:33.745 : en:Chapter 22
00:24:38.210 : en:Chapter 23
00:25:43.875 : en:Chapter 24
00:26:44.302 : en:Chapter 25
00:27:41.660 : en:Chapter 26
00:28:38.216 : en:Chapter 27
00:29:12.784 : en:Chapter 28
Общее
Полное имя : Schedule\21-Day-Fix-Workout-Calendar.jpg
Формат : JPEG
Размер файла : 89,9 Кбайт
Изображения
Формат : JPEG
Ширина : 960 пикселей
Высота : 720 пикселей
Цветовое пространство : YUV
Субдискретизация насыщенности : 4:2:0
Битовая глубина : 8 бит
Метод сжатия : С потерями
Размер потока : 89,9 Кбайт (100%)
Общее
Полное имя : Schedule\21-day-fix-workout-calendar.pdf
Размер файла : 46,6 Кбайт
Общее
Полное имя : Schedule\21-day-fix-workout-calendar.xlsx
Размер файла : 12,8 Кбайт
Общее
Уникальный идентификатор : 19589421739958990396377982004582337880 (0xEBCC90F76F2DFF8A753153ABE0ECD58)
Полное имя : Total Body Cardio Fix.mkv
Формат : Matroska
Версия формата : Version 2
Размер файла : 1,18 Гбайт
Продолжительность : 29 м.
Режим общего битрейта : Переменный
Общий поток : 5728 Кбит/сек
Название фильма : 21 Day Fix - Disc 1
Дата кодирования : UTC 2014-04-05 04:34:42
Программа кодирования : MakeMKV v1.8.9 darwin(x86-release)
Библиотека кодирования : libmakemkv v1.8.9 (1.3.0/1.4.1) darwin(x86-release)
Видео
Идентификатор : 1
Формат : MPEG Video
Версия формата : Version 2
Профиль формата : Main@Main
Параметр BVOP формата : Нет
Параметр матрицы формата : Выборочная
Идентификатор кодека : V_MPEG2
Идентификатор кодека/Информация : MPEG 1 or 2 Video
Продолжительность : 29 м.
Вид битрейта : Переменный
Битрейт : 5102 Кбит/сек
Максимальный битрейт : 9800 Кбит/сек
Ширина : 720 пикселей
Высота : 480 пикселей
Соотношение сторон : 16:9
Режим частоты кадров : Постоянный
Частота кадров : 29,970 кадров/сек
Стандарт вещания : NTSC
Цветовое пространство : YUV
Субдискретизация насыщенности : 4:2:0
Битовая глубина : 8 бит
Тип развёртки : Чересстрочная
Порядок развёртки : Верхнее поле первое
Метод сжатия : С потерями
Бит/(Пиксели*Кадры) : 0.493
Временной код первого кадра : 00:59:59;02
Оригинал временного кода : Group of pictures header
Размер потока : 1,06 Гбайт (89%)
Язык : English
Default : Нет
Forced : Нет
Аудио #1
Идентификатор : 2
Формат : AC-3
Формат/Информация : Audio Coding 3
Расширение режима : CM (complete main)
Параметр Endianness формата : Big
Идентификатор кодека : A_AC3
Продолжительность : 29 м.
Вид битрейта : Постоянный
Битрейт : 256 Кбит/сек
Каналы : 2 канала
Расположение каналов : Front: L R
Частота : 48,0 КГц
Битовая глубина : 16 бит
Метод сжатия : С потерями
Размер потока : 54,2 Мбайт (4%)
Заголовок : Stereo
Язык : English
Default : Да
Forced : Нет
Аудио #2
Идентификатор : 3
Формат : AC-3
Формат/Информация : Audio Coding 3
Расширение режима : CM (complete main)
Параметр Endianness формата : Big
Идентификатор кодека : A_AC3
Продолжительность : 29 м.
Вид битрейта : Постоянный
Битрейт : 256 Кбит/сек
Каналы : 2 канала
Расположение каналов : Front: L R
Частота : 48,0 КГц
Битовая глубина : 16 бит
Метод сжатия : С потерями
Размер потока : 54,2 Мбайт (4%)
Заголовок : Stereo
Язык : English
Default : Нет
Forced : Нет
Текст
Идентификатор : 4
Формат : VobSub
Идентификатор кодека : S_VOBSUB
Идентификатор кодека/Информация : The same subtitle format used on DVDs
Язык : English
Default : Да
Forced : Нет
Меню
00:00:00.000 : en:Chapter 01
00:00:06.873 : en:Chapter 02
00:00:16.950 : en:Chapter 03
00:00:41.741 : en:Chapter 04
00:04:09.582 : en:Chapter 05
00:05:32.965 : en:Chapter 06
00:06:56.215 : en:Chapter 07
00:08:14.427 : en:Chapter 08
00:09:45.851 : en:Chapter 09
00:11:10.670 : en:Chapter 10
00:12:35.287 : en:Chapter 11
00:14:01.607 : en:Chapter 12
00:15:27.593 : en:Chapter 13
00:16:54.546 : en:Chapter 14
00:18:21.567 : en:Chapter 15
00:19:38.510 : en:Chapter 16
00:21:19.278 : en:Chapter 17
00:22:53.071 : en:Chapter 18
00:24:07.245 : en:Chapter 19
00:25:20.752 : en:Chapter 20
00:26:23.882 : en:Chapter 21
Общее
Уникальный идентификатор : 172817329516618714246423858986042924897 (0x820368300177191FC5F57022D84A1F61)
Полное имя : Upper Fix.mkv
Формат : Matroska
Версия формата : Version 2
Размер файла : 1,31 Гбайт
Продолжительность : 32 м.
Режим общего битрейта : Переменный
Общий поток : 5728 Кбит/сек
Название фильма : 21 Day Fix - Disc 1
Дата кодирования : UTC 2014-04-05 04:38:24
Программа кодирования : MakeMKV v1.8.9 darwin(x86-release)
Библиотека кодирования : libmakemkv v1.8.9 (1.3.0/1.4.1) darwin(x86-release)
Видео
Идентификатор : 1
Формат : MPEG Video
Версия формата : Version 2
Профиль формата : Main@Main
Параметр BVOP формата : Нет
Параметр матрицы формата : Выборочная
Идентификатор кодека : V_MPEG2
Идентификатор кодека/Информация : MPEG 1 or 2 Video
Продолжительность : 32 м.
Вид битрейта : Переменный
Битрейт : 5102 Кбит/сек
Максимальный битрейт : 9800 Кбит/сек
Ширина : 720 пикселей
Высота : 480 пикселей
Соотношение сторон : 16:9
Режим частоты кадров : Постоянный
Частота кадров : 29,970 кадров/сек
Стандарт вещания : NTSC
Цветовое пространство : YUV
Субдискретизация насыщенности : 4:2:0
Битовая глубина : 8 бит
Тип развёртки : Чересстрочная
Порядок развёртки : Верхнее поле первое
Метод сжатия : С потерями
Бит/(Пиксели*Кадры) : 0.493
Временной код первого кадра : 00:59:59;02
Оригинал временного кода : Group of pictures header
Размер потока : 1,17 Гбайт (89%)
Язык : English
Default : Нет
Forced : Нет
Аудио #1
Идентификатор : 2
Формат : AC-3
Формат/Информация : Audio Coding 3
Расширение режима : CM (complete main)
Параметр Endianness формата : Big
Идентификатор кодека : A_AC3
Продолжительность : 32 м.
Вид битрейта : Постоянный
Битрейт : 256 Кбит/сек
Каналы : 2 канала
Расположение каналов : Front: L R
Частота : 48,0 КГц
Битовая глубина : 16 бит
Метод сжатия : С потерями
Размер потока : 60,1 Мбайт (4%)
Заголовок : Stereo
Язык : English
Default : Да
Forced : Нет
Аудио #2
Идентификатор : 3
Формат : AC-3
Формат/Информация : Audio Coding 3
Расширение режима : CM (complete main)
Параметр Endianness формата : Big
Идентификатор кодека : A_AC3
Продолжительность : 32 м.
Вид битрейта : Постоянный
Битрейт : 256 Кбит/сек
Каналы : 2 канала
Расположение каналов : Front: L R
Частота : 48,0 КГц
Битовая глубина : 16 бит
Метод сжатия : С потерями
Размер потока : 60,1 Мбайт (4%)
Заголовок : Stereo
Язык : English
Default : Нет
Forced : Нет
Текст
Идентификатор : 4
Формат : VobSub
Идентификатор кодека : S_VOBSUB
Идентификатор кодека/Информация : The same subtitle format used on DVDs
Язык : English
Default : Да
Forced : Нет
Меню
00:00:00.000 : en:Chapter 01
00:00:06.973 : en:Chapter 02
00:00:16.950 : en:Chapter 03
00:00:46.079 : en:Chapter 04
00:04:16.189 : en:Chapter 05
00:05:44.911 : en:Chapter 06
00:07:06.759 : en:Chapter 07
00:08:33.045 : en:Chapter 08
00:09:52.458 : en:Chapter 09
00:11:17.510 : en:Chapter 10
00:12:34.920 : en:Chapter 11
00:13:53.399 : en:Chapter 12
00:15:16.615 : en:Chapter 13
00:16:30.189 : en:Chapter 14
00:18:07.419 : en:Chapter 15
00:19:30.302 : en:Chapter 16
00:20:53.919 : en:Chapter 17
00:22:14.599 : en:Chapter 18
00:23:43.789 : en:Chapter 19
00:25:05.537 : en:Chapter 20
00:26:18.310 : en:Chapter 21
00:27:40.725 : en:Chapter 22
00:28:56.367 : en:Chapter 23
00:30:17.615 : en:Chapter 24
00:31:21.746 : en:Chapter 25
Общее
Уникальный идентификатор : 245713824701994416651962819285245192997 (0xB8DAC2E2E02F011CC8B20808C13B6B25)
Полное имя : Yoga Fix.mkv
Формат : Matroska
Версия формата : Version 2
Размер файла : 1,43 Гбайт
Продолжительность : 31 м.
Режим общего битрейта : Переменный
Общий поток : 6526 Кбит/сек
Название фильма : 21 Day Fix - Disc 2
Дата кодирования : UTC 2014-04-05 04:16:43
Программа кодирования : MakeMKV v1.8.9 darwin(x86-release)
Библиотека кодирования : libmakemkv v1.8.9 (1.3.0/1.4.1) darwin(x86-release)
Видео
Идентификатор : 1
Формат : MPEG Video
Версия формата : Version 2
Профиль формата : Main@Main
Параметр BVOP формата : Нет
Параметр матрицы формата : Выборочная
Идентификатор кодека : V_MPEG2
Идентификатор кодека/Информация : MPEG 1 or 2 Video
Продолжительность : 31 м.
Вид битрейта : Переменный
Битрейт : 5884 Кбит/сек
Максимальный битрейт : 9800 Кбит/сек
Ширина : 720 пикселей
Высота : 480 пикселей
Соотношение сторон : 16:9
Режим частоты кадров : Постоянный
Частота кадров : 29,970 кадров/сек
Стандарт вещания : NTSC
Цветовое пространство : YUV
Субдискретизация насыщенности : 4:2:0
Битовая глубина : 8 бит
Тип развёртки : Чересстрочная
Порядок развёртки : Верхнее поле первое
Метод сжатия : С потерями
Бит/(Пиксели*Кадры) : 0.568
Временной код первого кадра : 00:59:43;00
Оригинал временного кода : Group of pictures header
Размер потока : 1,29 Гбайт (90%)
Язык : English
Default : Нет
Forced : Нет
Аудио #1
Идентификатор : 2
Формат : AC-3
Формат/Информация : Audio Coding 3
Расширение режима : CM (complete main)
Параметр Endianness формата : Big
Идентификатор кодека : A_AC3
Продолжительность : 31 м.
Вид битрейта : Постоянный
Битрейт : 256 Кбит/сек
Каналы : 2 канала
Расположение каналов : Front: L R
Частота : 48,0 КГц
Битовая глубина : 16 бит
Метод сжатия : С потерями
Размер потока : 57,3 Мбайт (4%)
Заголовок : Stereo
Язык : English
Default : Да
Forced : Нет
Аудио #2
Идентификатор : 3
Формат : AC-3
Формат/Информация : Audio Coding 3
Расширение режима : CM (complete main)
Параметр Endianness формата : Big
Идентификатор кодека : A_AC3
Продолжительность : 31 м.
Вид битрейта : Постоянный
Битрейт : 256 Кбит/сек
Каналы : 2 канала
Расположение каналов : Front: L R
Частота : 48,0 КГц
Битовая глубина : 16 бит
Метод сжатия : С потерями
Размер потока : 57,3 Мбайт (4%)
Заголовок : Stereo
Язык : English
Default : Нет
Forced : Нет
Текст
Идентификатор : 4
Формат : VobSub
Идентификатор кодека : S_VOBSUB
Идентификатор кодека/Информация : The same subtitle format used on DVDs
Язык : English
Default : Да
Forced : Нет
Меню
00:00:00.000 : en:Chapter 01
00:00:07.040 : en:Chapter 02
00:00:17.017 : en:Chapter 03
00:00:52.052 : en:Chapter 04
00:01:14.507 : en:Chapter 05
00:04:21.995 : en:Chapter 06
00:11:00.126 : en:Chapter 07
00:16:20.579 : en:Chapter 08
00:29:53.925 : en:Chapter 09
[teatrix.ru].t13367.torrent 
Торрент: Зарегистрирован [ 2016-01-22 01:35 ] · 918B1631010F9E2BF73A24F997B28FAA2F191A2E

Скачать .torrent

Скачать

30 KB

Статус: проверено
Скачан: 0 раз
Размер: 11.33 GB
terms.php



Быстрый ответ

Имя:

      
Для отправки сообщений необходимо включить JavaScript
Показать сообщения:    

Текущее время: 08-Дек 23:08

Часовой пояс: UTC + 3


Вы можете начинать темы
Вы можете отвечать на сообщения
Вы не можете редактировать свои сообщения
Вы не можете удалять свои сообщения
Вы не можете голосовать в опросах
Вы не можете прикреплять файлы к сообщениям
Вы можете скачивать файлы