Paul Katami - Bootcamp 4х4х2 [2012 г., фитнес, DVDRip, ENG] (Видеоурок)


Статистика раздачи [Обновить пиров]
Размер:  1.11 GB   |    Зарегистрирован:  10 месяцев 13 дней   |    Скачан:  0 раз

Полного источника не было: Никогда

 
   
 
 
 

[Цитировать]

Paul Katami - Bootcamp 4х4х2
- Год выпуска: 2012
Страна: США
Жанр: фитнес
Продолжительность: 01:07:31
Язык: Английский-Описание: Эта тренировка, основанная на огромном количестве разнообразных креативных упражнений, станет для вас настоящим супер-испытанием!
Все движения - не только оригинальны, но и эффективны. Приготовьтесь - эта программа покажет предельные возможности вашего тела.
Формат тренировки простой: пять блоков по 4 упражнения. Упражнения также имеют разделения в блоках: кардио, низ тела, верх тела и мышцы кора (по 60 секунд на каждую "зону").
Здесь вы найдете как основную тренировку, так и 7-минутное обучение новым движениям.
Для занятий требуются гантели весом 2.5 и 5 кг.
-Уровень: Продвинутый

-Качество: DVDRip
Формат: AVI
Видео: 720x400 (1.80:1), 23.976 fps, XviD build 65 ~1937 kbps avg, 0.28 bit/pixel
Аудио #1: 48 kHz, AC3 Dolby Digital, 2/0 (L,R) ch, ~192 kbps
Аудио #2: 48 kHz, AC3 Dolby Digital, 2/0 (L,R) ch, ~192 kbps (без музыки)

Дополнительно


Аннотация на английском языке
Paul Katami's signature 4x4 Workout is a challenging bootcamp style interval class based on Paul's sold-out classes in Hollywood. 4x4x2 takes you through Four Minute Blocks of exercises consisting of One Minute Intervals of Cardio, Lower Body, Upper Body and Core Exercises. The Full-Body, Fast-Paced approach will leave you Breathless with Unmatched Results! Shot in real time with real 4x4 class participants to give you the best spot for this incredible workout.
A super-challenging workout that features a huge assortment of creative exercises. The moves are original and effective — this program will truly push your body to its limit. The format is simple: five blocks of four exercises. The exercises also have a consistent sequence: cardio, lower body, upper body and core (60 seconds each). But, even the “toning” intervals are aerobic — mostly fast-paced, explosive moves like “single leg burpees” or “plyometric squats” (so your heart rate never drops and you never stop burning fat). Other unique exercises include “180-degree mat jumps,” “twisting leg push-ups” and “scorpion planks.” DVD has a seven-minute tutorial of the new moves. Requires two sets of dumbbells (e.g. 5 and 10 lb.).
Warm-up: 2 minutes
Workout: 52 minutes
42 minutes (cardio-toning intervals)
10 minutes (cardio-toning intervals)
Cool-down: 4 minutes (stretch)-Warm up:
Wrist rolls while slow jogging; slow jog raising arms; slow high knee jog; double jack and squat.
BLOCK ONE:
One minute per segment, 15 second rest between:
Air Jack to Burpee
Plyo Jups (split leg jumps with heel click, 30 seconds each side)
Plank Fly and Tri
Inch Worm (from standing, bend over and walk out to plank, run/run side knees)
30 second break, then REPEAT BLOCK ONE
BLOCK TWO:
Swim and Surf (swim on mat for 4 counts, then pop up to surfer squat)
180 Mat Jumps (jump 180 over mat and land in squat, varying pace)
Flip Curls (descending bicep curls at angle)
Quad Squat to Side Plank (start and come back to “ball squat” position)
30 second rest and REPEAT
BLOCK THREE:
Double Run and Squat (scissor run + 90 degree turn to Squat)
Squat Walk Out (squat Hold to out/out/in/in legs in plank; hold squat 15 seconds at end)
Twisting Leg Push-ups (one leg on top of other)
Tuck & Boat (boat hold and tuck up into hip thrust)
30 second rest; REPEAT
BLOCK FOUR:
Pivot & Tuck Jump (last 15 seconds all tuck jumps)
Single Leg Burpee (controlled descent; 30 seconds each side)
Upright Row to Lateral Raise (last 15 seconds hold in iron cross)
Scorpion (plank, knee tuck, rotation)
30 second rest; REPEAT
BLOCK FIVE/BONUS BLOCK:
4 Corner Jumps (around mat)
Single Leg Dead Lift (30 second each side)
Coil Plank (knees coil to side, into down dog, dive forward and up)
Curl and Reach (oblique reach and twist in boat)
COOL DOWN

Отчет MI

GeneralComplete name : 02 4x4 Workout.aviFormat : AVIFormat/Info : Audio Video InterleaveFile size : 1 005 MiBDuration : 1h 0mnOverall bit rate : 2 337 KbpsWriting application : VirtualDubModRus 1.5.10.2 (build 2542/release)Writing library : VirtualDubMod build 2542/release
VideoID : 0Format : MPEG-4 VisualFormat profile : Advanced Simple@L5Format settings, BVOP : 1Format settings, QPel : NoFormat settings, GMC : No warppointsFormat settings, Matrix : CustomCodec ID : XVIDCodec ID/Hint : XviDDuration : 1h 0mnBit rate : 1 938 KbpsWidth : 720 pixelsHeight : 400 pixelsDisplay aspect ratio : 16:9Frame rate : 23.976 fpsColor space : YUVChroma subsampling : 4:2:0Bit depth : 8 bitsScan type : ProgressiveCompression mode : LossyBits/(Pixel*Frame) : 0.281Stream size : 834 MiB (83%)Writing library : XviD 65
Audio #1ID : 1Format : AC-3Format/Info : Audio Coding 3Mode extension : CM (complete main)Format settings, Endianness : BigCodec ID : 2000Duration : 1h 0mnBit rate mode : ConstantBit rate : 192 KbpsChannel count : 2 channelsChannel positions : Front: L RSampling rate : 48.0 KHzBit depth : 16 bitsCompression mode : LossyStream size : 82.6 MiB (8%)Alignment : Split accross interleavesInterleave, duration : 42 ms (1.00 video frame)Interleave, preload duration : 500 ms
Audio #2ID : 2Format : AC-3Format/Info : Audio Coding 3Mode extension : CM (complete main)Format settings, Endianness : BigCodec ID : 2000Duration : 1h 0mnBit rate mode : ConstantBit rate : 192 KbpsChannel count : 2 channelsChannel positions : Front: L RSampling rate : 48.0 KHzBit depth : 16 bitsCompression mode : LossyStream size : 82.6 MiB (8%)Alignment : Split accross interleavesInterleave, duration : 42 ms (1.00 video frame)Interleave, preload duration : 500 ms
[teatrix.ru].t13376.torrent 
Торрент: Зарегистрирован [ 2016-01-22 01:35 ] · CB8FDE656837211907CD2780B54EFA32A26A42DE

Скачать .torrent

Скачать

12 KB

Статус: проверено
Скачан: 0 раз
Размер: 1.11 GB
terms.php



Быстрый ответ

Имя:

      
Для отправки сообщений необходимо включить JavaScript
Показать сообщения:    

Текущее время: 04-Дек 13:07

Часовой пояс: UTC + 3


Вы можете начинать темы
Вы можете отвечать на сообщения
Вы не можете редактировать свои сообщения
Вы не можете удалять свои сообщения
Вы не можете голосовать в опросах
Вы не можете прикреплять файлы к сообщениям
Вы можете скачивать файлы