Tracy Andersons Dance plus Cardio [2013, фитнес, DVDRip, ENG]


Статистика раздачи [Обновить пиров]
Размер:  586 MB   |    Зарегистрирован:  10 месяцев 19 дней   |    Скачан:  1 раз

Полного источника не было: 2 месяца 2 дня

 
   
 
 
 

[Цитировать]

Tracy Andersons Dance plus Cardio [2013, DVDRip, ENG]
Страна: США
Тематика: фитнес
Тип раздаваемого материала: видеоурок
Продолжительность: указана отдельно
Год выпуска: 2013
Язык: Английский
Перевод: Отсутствует
Описание: Это новая танцевальная кардио тренировка от Трейси, подходит как для начинающих, так и для людей любого другого уровня подготовки, она заставит работать каждый мускул вашего тела. Секрет в повторении отдельных шагов и комбинаций. Это удобно, вы можете несколько раз посмотреть и повторить движения, прежде чем перейти к следующей комбинации.
Первая часть содержит все, начиная от простых наклонов и поворотов, заканчивая подъёмом ног в балетном стиле и боковыми маятниковыми ударами. Вторая часть проходит в более ускоренном темпе и состоит из танцевальных элементов в джазовом стиле. Качество: DVDRip
Формат: AVI
Видео кодек: XviD
Аудио кодек: MP3
Видео: XviD MPEG-4 672x368 1336kbps 25fps
Аудио: MPEG Layer 3 48kHz 112kbps 2ch

Скриншоты

Продолжительность

Dance_Cardio_1: 00:30:24
Dance_Cardio_2: 00:25:48

MediaInfo

Общее
Полное имя : M:\Sport\Трейси_Андерсон\TA_Dance+Cardio\Dance_Cardio_1.avi
Формат : AVI
Формат/Информация : Audio Video Interleave
Размер файла : 317 Мбайт
Продолжительность : 30 м.
Общий поток : 1458 Кбит/сек
Библиотека кодирования : TMPGEnc 4.0 XPress Version. 4.7.7.307
Видео
Идентификатор : 0
Формат : MPEG-4 Visual
Профиль формата : Advanced Simple@L5
Параметр BVOP формата : 1
Параметр QPel формата : Нет
Параметр GMC формата : Без точки перехода
Параметр матрицы формата : Default (MPEG)
Режим смешивания : Сжатый битовый поток
Идентификатор кодека : XVID
Идентификатор кодека/Подсказка : XviD
Продолжительность : 30 м.
Битрейт : 1333 Кбит/сек
Ширина : 672 пикселя
Высота : 368 пикселей
Соотношение сторон : 1,85:1
Частота кадров : 25,000 кадров/сек
Цветовое пространство : YUV
Субдискретизация насыщенности : 4:2:0
Битовая глубина : 8 бит
Тип развёртки : Прогрессивная
Метод сжатия : С потерями
Бит/(Пиксели*Кадры) : 0.216
Размер потока : 290 Мбайт (91%)
Библиотека кодирования : XviD 64
Аудио
Идентификатор : 1
Формат : MPEG Audio
Версия формата : Version 1
Профиль формата : Layer 3
Режим : Joint stereo
Расширение режима : MS Stereo
Идентификатор кодека : 55
Идентификатор кодека/Подсказка : MP3
Продолжительность : 30 м.
Вид битрейта : Постоянный
Битрейт : 112 Кбит/сек
Каналы : 2 канала
Частота : 48,0 КГц
Метод сжатия : С потерями
Размер потока : 24,4 Мбайт (8%)
Выравнивание : Соединение по промежуткам
Продолжительность промежутка : 41 мс. (1,02 видеокадр)
Время предзагрузки промежутка : 384 мс.
Общее
Полное имя : M:\Sport\Трейси_Андерсон\TA_Dance+Cardio\Dance_Cardio_2.avi
Формат : AVI
Формат/Информация : Audio Video Interleave
Размер файла : 269 Мбайт
Продолжительность : 25 м.
Общий поток : 1458 Кбит/сек
Библиотека кодирования : TMPGEnc 4.0 XPress Version. 4.7.7.307
Видео
Идентификатор : 0
Формат : MPEG-4 Visual
Профиль формата : Advanced Simple@L5
Параметр BVOP формата : 1
Параметр QPel формата : Нет
Параметр GMC формата : Без точки перехода
Параметр матрицы формата : Default (MPEG)
Режим смешивания : Сжатый битовый поток
Идентификатор кодека : XVID
Идентификатор кодека/Подсказка : XviD
Продолжительность : 25 м.
Битрейт : 1333 Кбит/сек
Ширина : 672 пикселя
Высота : 368 пикселей
Соотношение сторон : 1,85:1
Частота кадров : 25,000 кадров/сек
Цветовое пространство : YUV
Субдискретизация насыщенности : 4:2:0
Битовая глубина : 8 бит
Тип развёртки : Прогрессивная
Метод сжатия : С потерями
Бит/(Пиксели*Кадры) : 0.216
Размер потока : 246 Мбайт (91%)
Библиотека кодирования : XviD 64
Аудио
Идентификатор : 1
Формат : MPEG Audio
Версия формата : Version 1
Профиль формата : Layer 3
Режим : Joint stereo
Расширение режима : MS Stereo
Идентификатор кодека : 55
Идентификатор кодека/Подсказка : MP3
Продолжительность : 25 м.
Вид битрейта : Постоянный
Битрейт : 112 Кбит/сек
Каналы : 2 канала
Частота : 48,0 КГц
Метод сжатия : С потерями
Размер потока : 20,7 Мбайт (8%)
Выравнивание : Соединение по промежуткам
Продолжительность промежутка : 41 мс. (1,02 видеокадр)
Время предзагрузки промежутка : 384 мс.
Выражаем благодарность за предоставленный материал E.K.A
[teatrix.ru].t13381.torrent 
Торрент: Зарегистрирован [ 2016-01-22 01:35 ] · 489DEE6EAD45270A7E76E0F0D26FB5EA7E45F15C

Скачать .torrent

Скачать

12 KB

Статус: проверено
Скачан: 1 раз
Размер: 586 MB
terms.php



Быстрый ответ

Имя:

      
Для отправки сообщений необходимо включить JavaScript
Показать сообщения:    

Текущее время: 10-Дек 11:50

Часовой пояс: UTC + 3


Вы можете начинать темы
Вы можете отвечать на сообщения
Вы не можете редактировать свои сообщения
Вы не можете удалять свои сообщения
Вы не можете голосовать в опросах
Вы не можете прикреплять файлы к сообщениям
Вы можете скачивать файлы