Metamorphosis Continuity 1.2 by Tracy Anderson (Hipcentric) [2011, Фитнес, DVDRip, ENG]


Статистика раздачи [Обновить пиров]
Размер:  3.42 GB   |    Зарегистрирован:  10 месяцев 20 дней   |    Скачан:  0 раз

Полного источника не было: Никогда

 
   
 
 
 

[Цитировать]

Metamorphosis Continuity 1.2 by Tracy Anderson (Hipcentric) [2011, Фитнес, DVDRip, ENG]
Страна: США
Тематика: фитнес
Тип раздаваемого материала: Видеоурок
Продолжительность: указано отдельно
Год выпуска: 2011
Язык: Английский
Перевод: Отсутствует
Описание: Metamorphosis - 90-дневная программа от известного тренера Трейси Андерсон (Tracy Anderson), которая тренирует таких звезд, как Гвинет Палтроу, Кортни Кокс, Шакира и др.
Программа состоит из 9 силовых тренировок, каждую из которых нужно делать на протяжении 10 дней, и одной кардиотренировки (ее нужно делать на протяжении всех 90 дней). Metamorphosis разработан для четырех типов фигур: абцентрики (те, у кого главной проблемной зоной является живот), хипцентрики (те, у кого главной проблемной зоной являются бедра), глюцентрики (те, у кого главной проблемной зоной являются ягодицы) и омницентрики (те, кто полнеет везде относительно равномерно). В данной раздаче вы найдете продолжение программы Метаморфоз для Хипцентриков (7-9 й месяц тренировки).
Для занятий вам потребуются: коврик, гантели (не более 1,5 кг), утяжелители для ног. Тем, кто хочет похудеть, Трейси рекомендует делать сначала силовую тренировку, а после нее - кардио.
Доп. информация: Будьте внимательны, в некоторых тренировках, упражнения на левую сторону не в полном объеме.
Качество: DVDRip
Формат: AVI
Видео кодек: XviD
Аудио кодек: MP3
Видео: XviD MPEG-4 640x352 29.97fps 1335 kbps
Аудио: MPEG Layer 3 48000Hz 112kbps 2ch

Продолжительность тренировок

181-190 00:32:40
191-200 00:29:29
201-210 00:31:51
211-220 00:29:56
221-230 00:33:54
231-240 00:27:12
241-250 00:33:22
251-260 00:24:22
261-270 00:34:43
Bonus Arms 181-190 00:03:24
Bonus Arms 191-200 00:02:39
Bonus Arms 201-210 00:03:11
Bonus Arms 211-220 00:03:09
Bonus Arms 221-230 00:03:00
Bonus Arms 231-240 00:03:01
Bonus Arms 241-250 00:03:02
Bonus Arms 251-260 00:03:08
Bonus Arms 261-270 00:02:53
Кардио тренировка 00:30:18

MediaInfo

Общее
Полное имя : M:\Sport\Трейси_Андерсон\TA_Hipcentric\TA_Continuity 1.2_Hipcentric\Bonus_Arms\181-190.avi
Формат : AVI
Формат/Информация : Audio Video Interleave
Размер файла : 27,6 Мбайт
Продолжительность : 2 м. 39 с.
Общий поток : 1450 Кбит/сек
Библиотека кодирования : TMPGEnc 4.0 XPress Version. 4.7.7.307
Видео
Идентификатор : 0
Формат : MPEG-4 Visual
Профиль формата : Advanced Simple@L5
Параметр BVOP формата : 1
Параметр QPel формата : Нет
Параметр GMC формата : Без точки перехода
Параметр матрицы формата : Default (MPEG)
Режим смешивания : Сжатый битовый поток
Идентификатор кодека : XVID
Идентификатор кодека/Подсказка : XviD
Продолжительность : 2 м. 39 с.
Битрейт : 1322 Кбит/сек
Ширина : 640 пикселей
Высота : 352 пикселя
Соотношение сторон : 16:9
Частота кадров : 29,970 кадров/сек
Цветовое пространство : YUV
Субдискретизация насыщенности : 4:2:0
Битовая глубина : 8 бит
Тип развёртки : Прогрессивная
Метод сжатия : С потерями
Бит/(Пиксели*Кадры) : 0.196
Размер потока : 25,1 Мбайт (91%)
Библиотека кодирования : XviD 64
Аудио
Идентификатор : 1
Формат : MPEG Audio
Версия формата : Version 1
Профиль формата : Layer 3
Режим : Joint stereo
Расширение режима : MS Stereo
Идентификатор кодека : 55
Идентификатор кодека/Подсказка : MP3
Продолжительность : 2 м. 39 с.
Вид битрейта : Постоянный
Битрейт : 112 Кбит/сек
Каналы : 2 канала
Частота : 48,0 КГц
Метод сжатия : С потерями
Размер потока : 2,13 Мбайт (8%)
Выравнивание : Соединение по промежуткам
Продолжительность промежутка : 35 мс. (1,05 видеокадр)
Время предзагрузки промежутка : 408 мс.
Общее
Полное имя : M:\Sport\Трейси_Андерсон\TA_Hipcentric\TA_Continuity 1.2_Hipcentric\Bonus_Arms\191-200.avi
Формат : AVI
Формат/Информация : Audio Video Interleave
Размер файла : 33,1 Мбайт
Продолжительность : 3 м. 11 с.
Общий поток : 1453 Кбит/сек
Библиотека кодирования : TMPGEnc 4.0 XPress Version. 4.7.7.307
Видео
Идентификатор : 0
Формат : MPEG-4 Visual
Профиль формата : Advanced Simple@L5
Параметр BVOP формата : 1
Параметр QPel формата : Нет
Параметр GMC формата : Без точки перехода
Параметр матрицы формата : Default (MPEG)
Режим смешивания : Сжатый битовый поток
Идентификатор кодека : XVID
Идентификатор кодека/Подсказка : XviD
Продолжительность : 3 м. 11 с.
Битрейт : 1325 Кбит/сек
Ширина : 640 пикселей
Высота : 352 пикселя
Соотношение сторон : 16:9
Частота кадров : 29,970 кадров/сек
Цветовое пространство : YUV
Субдискретизация насыщенности : 4:2:0
Битовая глубина : 8 бит
Тип развёртки : Прогрессивная
Метод сжатия : С потерями
Бит/(Пиксели*Кадры) : 0.196
Размер потока : 30,2 Мбайт (91%)
Библиотека кодирования : XviD 64
Аудио
Идентификатор : 1
Формат : MPEG Audio
Версия формата : Version 1
Профиль формата : Layer 3
Режим : Joint stereo
Расширение режима : MS Stereo
Идентификатор кодека : 55
Идентификатор кодека/Подсказка : MP3
Продолжительность : 3 м. 11 с.
Вид битрейта : Постоянный
Битрейт : 112 Кбит/сек
Каналы : 2 канала
Частота : 48,0 КГц
Метод сжатия : С потерями
Размер потока : 2,55 Мбайт (8%)
Выравнивание : Соединение по промежуткам
Продолжительность промежутка : 34 мс. (1,02 видеокадр)
Время предзагрузки промежутка : 408 мс.
Общее
Полное имя : M:\Sport\Трейси_Андерсон\TA_Hipcentric\TA_Continuity 1.2_Hipcentric\Bonus_Arms\201-210.avi
Формат : AVI
Формат/Информация : Audio Video Interleave
Размер файла : 32,9 Мбайт
Продолжительность : 3 м. 9 с.
Общий поток : 1454 Кбит/сек
Библиотека кодирования : TMPGEnc 4.0 XPress Version. 4.7.7.307
Видео
Идентификатор : 0
Формат : MPEG-4 Visual
Профиль формата : Advanced Simple@L5
Параметр BVOP формата : 1
Параметр QPel формата : Нет
Параметр GMC формата : Без точки перехода
Параметр матрицы формата : Default (MPEG)
Режим смешивания : Сжатый битовый поток
Идентификатор кодека : XVID
Идентификатор кодека/Подсказка : XviD
Продолжительность : 3 м. 9 с.
Битрейт : 1326 Кбит/сек
Ширина : 640 пикселей
Высота : 352 пикселя
Соотношение сторон : 16:9
Частота кадров : 29,970 кадров/сек
Цветовое пространство : YUV
Субдискретизация насыщенности : 4:2:0
Битовая глубина : 8 бит
Тип развёртки : Прогрессивная
Метод сжатия : С потерями
Бит/(Пиксели*Кадры) : 0.196
Размер потока : 30,0 Мбайт (91%)
Библиотека кодирования : XviD 64
Аудио
Идентификатор : 1
Формат : MPEG Audio
Версия формата : Version 1
Профиль формата : Layer 3
Режим : Joint stereo
Расширение режима : MS Stereo
Идентификатор кодека : 55
Идентификатор кодека/Подсказка : MP3
Продолжительность : 3 м. 9 с.
Вид битрейта : Постоянный
Битрейт : 112 Кбит/сек
Каналы : 2 канала
Частота : 48,0 КГц
Метод сжатия : С потерями
Размер потока : 2,53 Мбайт (8%)
Выравнивание : Соединение по промежуткам
Продолжительность промежутка : 34 мс. (1,02 видеокадр)
Время предзагрузки промежутка : 408 мс.
Общее
Полное имя : M:\Sport\Трейси_Андерсон\TA_Hipcentric\TA_Continuity 1.2_Hipcentric\Bonus_Arms\211-220.avi
Формат : AVI
Формат/Информация : Audio Video Interleave
Размер файла : 31,2 Мбайт
Продолжительность : 3 м. 0 с.
Общий поток : 1449 Кбит/сек
Библиотека кодирования : TMPGEnc 4.0 XPress Version. 4.7.7.307
Видео
Идентификатор : 0
Формат : MPEG-4 Visual
Профиль формата : Advanced Simple@L5
Параметр BVOP формата : 1
Параметр QPel формата : Нет
Параметр GMC формата : Без точки перехода
Параметр матрицы формата : Default (MPEG)
Режим смешивания : Сжатый битовый поток
Идентификатор кодека : XVID
Идентификатор кодека/Подсказка : XviD
Продолжительность : 3 м. 0 с.
Битрейт : 1321 Кбит/сек
Ширина : 640 пикселей
Высота : 352 пикселя
Соотношение сторон : 16:9
Частота кадров : 29,970 кадров/сек
Цветовое пространство : YUV
Субдискретизация насыщенности : 4:2:0
Битовая глубина : 8 бит
Тип развёртки : Прогрессивная
Метод сжатия : С потерями
Бит/(Пиксели*Кадры) : 0.196
Размер потока : 28,4 Мбайт (91%)
Библиотека кодирования : XviD 64
Аудио
Идентификатор : 1
Формат : MPEG Audio
Версия формата : Version 1
Профиль формата : Layer 3
Режим : Joint stereo
Идентификатор кодека : 55
Идентификатор кодека/Подсказка : MP3
Продолжительность : 3 м. 0 с.
Вид битрейта : Постоянный
Битрейт : 112 Кбит/сек
Каналы : 2 канала
Частота : 48,0 КГц
Метод сжатия : С потерями
Размер потока : 2,41 Мбайт (8%)
Выравнивание : Соединение по промежуткам
Продолжительность промежутка : 34 мс. (1,02 видеокадр)
Время предзагрузки промежутка : 408 мс.
Общее
Полное имя : M:\Sport\Трейси_Андерсон\TA_Hipcentric\TA_Continuity 1.2_Hipcentric\Bonus_Arms\221-230.avi
Формат : AVI
Формат/Информация : Audio Video Interleave
Размер файла : 31,2 Мбайт
Продолжительность : 3 м. 1 с.
Общий поток : 1446 Кбит/сек
Библиотека кодирования : TMPGEnc 4.0 XPress Version. 4.7.7.307
Видео
Идентификатор : 0
Формат : MPEG-4 Visual
Профиль формата : Advanced Simple@L5
Параметр BVOP формата : 1
Параметр QPel формата : Нет
Параметр GMC формата : Без точки перехода
Параметр матрицы формата : Default (MPEG)
Режим смешивания : Сжатый битовый поток
Идентификатор кодека : XVID
Идентификатор кодека/Подсказка : XviD
Продолжительность : 3 м. 1 с.
Битрейт : 1318 Кбит/сек
Ширина : 640 пикселей
Высота : 352 пикселя
Соотношение сторон : 16:9
Частота кадров : 29,970 кадров/сек
Цветовое пространство : YUV
Субдискретизация насыщенности : 4:2:0
Битовая глубина : 8 бит
Тип развёртки : Прогрессивная
Метод сжатия : С потерями
Бит/(Пиксели*Кадры) : 0.195
Размер потока : 28,4 Мбайт (91%)
Библиотека кодирования : XviD 64
Аудио
Идентификатор : 1
Формат : MPEG Audio
Версия формата : Version 1
Профиль формата : Layer 3
Режим : Joint stereo
Расширение режима : MS Stereo
Идентификатор кодека : 55
Идентификатор кодека/Подсказка : MP3
Продолжительность : 3 м. 1 с.
Вид битрейта : Постоянный
Битрейт : 112 Кбит/сек
Каналы : 2 канала
Частота : 48,0 КГц
Метод сжатия : С потерями
Размер потока : 2,42 Мбайт (8%)
Выравнивание : Соединение по промежуткам
Продолжительность промежутка : 34 мс. (1,02 видеокадр)
Время предзагрузки промежутка : 408 мс.
Общее
Полное имя : M:\Sport\Трейси_Андерсон\TA_Hipcentric\TA_Continuity 1.2_Hipcentric\Bonus_Arms\231-240.avi
Формат : AVI
Формат/Информация : Audio Video Interleave
Размер файла : 31,6 Мбайт
Продолжительность : 3 м. 2 с.
Общий поток : 1452 Кбит/сек
Библиотека кодирования : TMPGEnc 4.0 XPress Version. 4.7.7.307
Видео
Идентификатор : 0
Формат : MPEG-4 Visual
Профиль формата : Advanced Simple@L5
Параметр BVOP формата : 1
Параметр QPel формата : Нет
Параметр GMC формата : Без точки перехода
Параметр матрицы формата : Default (MPEG)
Режим смешивания : Сжатый битовый поток
Идентификатор кодека : XVID
Идентификатор кодека/Подсказка : XviD
Продолжительность : 3 м. 2 с.
Битрейт : 1324 Кбит/сек
Ширина : 640 пикселей
Высота : 352 пикселя
Соотношение сторон : 16:9
Частота кадров : 29,970 кадров/сек
Цветовое пространство : YUV
Субдискретизация насыщенности : 4:2:0
Битовая глубина : 8 бит
Тип развёртки : Прогрессивная
Метод сжатия : С потерями
Бит/(Пиксели*Кадры) : 0.196
Размер потока : 28,8 Мбайт (91%)
Библиотека кодирования : XviD 64
Аудио
Идентификатор : 1
Формат : MPEG Audio
Версия формата : Version 1
Профиль формата : Layer 3
Режим : Joint stereo
Расширение режима : MS Stereo
Идентификатор кодека : 55
Идентификатор кодека/Подсказка : MP3
Продолжительность : 3 м. 2 с.
Вид битрейта : Постоянный
Битрейт : 112 Кбит/сек
Каналы : 2 канала
Частота : 48,0 КГц
Метод сжатия : С потерями
Размер потока : 2,44 Мбайт (8%)
Выравнивание : Соединение по промежуткам
Продолжительность промежутка : 34 мс. (1,03 видеокадр)
Время предзагрузки промежутка : 408 мс.
Общее
Полное имя : M:\Sport\Трейси_Андерсон\TA_Hipcentric\TA_Continuity 1.2_Hipcentric\Bonus_Arms\241-250.avi
Формат : AVI
Формат/Информация : Audio Video Interleave
Размер файла : 32,6 Мбайт
Продолжительность : 3 м. 8 с.
Общий поток : 1449 Кбит/сек
Библиотека кодирования : TMPGEnc 4.0 XPress Version. 4.7.7.307
Видео
Идентификатор : 0
Формат : MPEG-4 Visual
Профиль формата : Advanced Simple@L5
Параметр BVOP формата : 1
Параметр QPel формата : Нет
Параметр GMC формата : Без точки перехода
Параметр матрицы формата : Default (MPEG)
Режим смешивания : Сжатый битовый поток
Идентификатор кодека : XVID
Идентификатор кодека/Подсказка : XviD
Продолжительность : 3 м. 8 с.
Битрейт : 1321 Кбит/сек
Ширина : 640 пикселей
Высота : 352 пикселя
Соотношение сторон : 16:9
Частота кадров : 29,970 кадров/сек
Цветовое пространство : YUV
Субдискретизация насыщенности : 4:2:0
Битовая глубина : 8 бит
Тип развёртки : Прогрессивная
Метод сжатия : С потерями
Бит/(Пиксели*Кадры) : 0.196
Размер потока : 29,7 Мбайт (91%)
Библиотека кодирования : XviD 64
Аудио
Идентификатор : 1
Формат : MPEG Audio
Версия формата : Version 1
Профиль формата : Layer 3
Режим : Joint stereo
Расширение режима : MS Stereo
Идентификатор кодека : 55
Идентификатор кодека/Подсказка : MP3
Продолжительность : 3 м. 8 с.
Вид битрейта : Постоянный
Битрейт : 112 Кбит/сек
Каналы : 2 канала
Частота : 48,0 КГц
Метод сжатия : С потерями
Размер потока : 2,52 Мбайт (8%)
Выравнивание : Соединение по промежуткам
Продолжительность промежутка : 34 мс. (1,03 видеокадр)
Время предзагрузки промежутка : 408 мс.
Общее
Полное имя : M:\Sport\Трейси_Андерсон\TA_Hipcentric\TA_Continuity 1.2_Hipcentric\Bonus_Arms\251-260.avi
Формат : AVI
Формат/Информация : Audio Video Interleave
Размер файла : 30,1 Мбайт
Продолжительность : 2 м. 53 с.
Общий поток : 1452 Кбит/сек
Библиотека кодирования : TMPGEnc 4.0 XPress Version. 4.7.7.307
Видео
Идентификатор : 0
Формат : MPEG-4 Visual
Профиль формата : Advanced Simple@L5
Параметр BVOP формата : 1
Параметр QPel формата : Нет
Параметр GMC формата : Без точки перехода
Параметр матрицы формата : Default (MPEG)
Режим смешивания : Сжатый битовый поток
Идентификатор кодека : XVID
Идентификатор кодека/Подсказка : XviD
Продолжительность : 2 м. 53 с.
Битрейт : 1324 Кбит/сек
Ширина : 640 пикселей
Высота : 352 пикселя
Соотношение сторон : 16:9
Частота кадров : 29,970 кадров/сек
Цветовое пространство : YUV
Субдискретизация насыщенности : 4:2:0
Битовая глубина : 8 бит
Тип развёртки : Прогрессивная
Метод сжатия : С потерями
Бит/(Пиксели*Кадры) : 0.196
Размер потока : 27,4 Мбайт (91%)
Библиотека кодирования : XviD 64
Аудио
Идентификатор : 1
Формат : MPEG Audio
Версия формата : Version 1
Профиль формата : Layer 3
Режим : Joint stereo
Расширение режима : MS Stereo
Идентификатор кодека : 55
Идентификатор кодека/Подсказка : MP3
Продолжительность : 2 м. 53 с.
Вид битрейта : Постоянный
Битрейт : 112 Кбит/сек
Каналы : 2 канала
Частота : 48,0 КГц
Метод сжатия : С потерями
Размер потока : 2,32 Мбайт (8%)
Выравнивание : Соединение по промежуткам
Продолжительность промежутка : 35 мс. (1,04 видеокадр)
Время предзагрузки промежутка : 408 мс.
Общее
Полное имя : M:\Sport\Трейси_Андерсон\TA_Hipcentric\TA_Continuity 1.2_Hipcentric\Bonus_Arms\261-270.avi
Формат : AVI
Формат/Информация : Audio Video Interleave
Размер файла : 35,4 Мбайт
Продолжительность : 3 м. 24 с.
Общий поток : 1453 Кбит/сек
Библиотека кодирования : TMPGEnc 4.0 XPress Version. 4.7.7.307
Видео
Идентификатор : 0
Формат : MPEG-4 Visual
Профиль формата : Advanced Simple@L5
Параметр BVOP формата : 1
Параметр QPel формата : Нет
Параметр GMC формата : Без точки перехода
Параметр матрицы формата : Default (MPEG)
Режим смешивания : Сжатый битовый поток
Идентификатор кодека : XVID
Идентификатор кодека/Подсказка : XviD
Продолжительность : 3 м. 24 с.
Битрейт : 1325 Кбит/сек
Ширина : 640 пикселей
Высота : 352 пикселя
Соотношение сторон : 16:9
Частота кадров : 29,970 кадров/сек
Цветовое пространство : YUV
Субдискретизация насыщенности : 4:2:0
Битовая глубина : 8 бит
Тип развёртки : Прогрессивная
Метод сжатия : С потерями
Бит/(Пиксели*Кадры) : 0.196
Размер потока : 32,3 Мбайт (91%)
Библиотека кодирования : XviD 64
Аудио
Идентификатор : 1
Формат : MPEG Audio
Версия формата : Version 1
Профиль формата : Layer 3
Режим : Joint stereo
Расширение режима : MS Stereo
Идентификатор кодека : 55
Идентификатор кодека/Подсказка : MP3
Продолжительность : 3 м. 24 с.
Вид битрейта : Постоянный
Битрейт : 112 Кбит/сек
Каналы : 2 канала
Частота : 48,0 КГц
Метод сжатия : С потерями
Размер потока : 2,73 Мбайт (8%)
Выравнивание : Соединение по промежуткам
Продолжительность промежутка : 35 мс. (1,04 видеокадр)
Время предзагрузки промежутка : 408 мс.
Общее
Полное имя : M:\Sport\Трейси_Андерсон\TA_Hipcentric\TA_Continuity 1.2_Hipcentric\Cardio1_2.avi
Формат : AVI
Формат/Информация : Audio Video Interleave
Размер файла : 316 Мбайт
Продолжительность : 30 м.
Общий поток : 1458 Кбит/сек
Библиотека кодирования : TMPGEnc 4.0 XPress Version. 4.7.7.307
Видео
Идентификатор : 0
Формат : MPEG-4 Visual
Профиль формата : Advanced Simple@L5
Параметр BVOP формата : 1
Параметр QPel формата : Нет
Параметр GMC формата : Без точки перехода
Параметр матрицы формата : Default (MPEG)
Режим смешивания : Сжатый битовый поток
Идентификатор кодека : XVID
Идентификатор кодека/Подсказка : XviD
Продолжительность : 30 м.
Битрейт : 1331 Кбит/сек
Ширина : 640 пикселей
Высота : 352 пикселя
Соотношение сторон : 16:9
Частота кадров : 29,970 кадров/сек
Цветовое пространство : YUV
Субдискретизация насыщенности : 4:2:0
Битовая глубина : 8 бит
Тип развёртки : Прогрессивная
Метод сжатия : С потерями
Бит/(Пиксели*Кадры) : 0.197
Размер потока : 288 Мбайт (91%)
Библиотека кодирования : XviD 64
Аудио
Идентификатор : 1
Формат : MPEG Audio
Версия формата : Version 1
Профиль формата : Layer 3
Режим : Joint stereo
Идентификатор кодека : 55
Идентификатор кодека/Подсказка : MP3
Продолжительность : 30 м.
Вид битрейта : Постоянный
Битрейт : 112 Кбит/сек
Каналы : 2 канала
Частота : 48,0 КГц
Метод сжатия : С потерями
Размер потока : 24,3 Мбайт (8%)
Выравнивание : Соединение по промежуткам
Продолжительность промежутка : 34 мс. (1,03 видеокадр)
Время предзагрузки промежутка : 408 мс.
Общее
Полное имя : M:\Sport\Трейси_Андерсон\TA_Hipcentric\TA_Continuity 1.2_Hipcentric\Day 181-190.avi
Формат : AVI
Формат/Информация : Audio Video Interleave
Размер файла : 341 Мбайт
Продолжительность : 32 м.
Общий поток : 1459 Кбит/сек
Библиотека кодирования : TMPGEnc 4.0 XPress Version. 4.7.7.307
Видео
Идентификатор : 0
Формат : MPEG-4 Visual
Профиль формата : Advanced Simple@L5
Параметр BVOP формата : 1
Параметр QPel формата : Нет
Параметр GMC формата : Без точки перехода
Параметр матрицы формата : Default (MPEG)
Режим смешивания : Сжатый битовый поток
Идентификатор кодека : XVID
Идентификатор кодека/Подсказка : XviD
Продолжительность : 32 м.
Битрейт : 1331 Кбит/сек
Ширина : 640 пикселей
Высота : 352 пикселя
Соотношение сторон : 16:9
Частота кадров : 29,970 кадров/сек
Цветовое пространство : YUV
Субдискретизация насыщенности : 4:2:0
Битовая глубина : 8 бит
Тип развёртки : Прогрессивная
Метод сжатия : С потерями
Бит/(Пиксели*Кадры) : 0.197
Размер потока : 311 Мбайт (91%)
Библиотека кодирования : XviD 64
Аудио
Идентификатор : 1
Формат : MPEG Audio
Версия формата : Version 1
Профиль формата : Layer 3
Режим : Joint stereo
Расширение режима : MS Stereo
Идентификатор кодека : 55
Идентификатор кодека/Подсказка : MP3
Продолжительность : 32 м.
Вид битрейта : Постоянный
Битрейт : 112 Кбит/сек
Каналы : 2 канала
Частота : 48,0 КГц
Метод сжатия : С потерями
Размер потока : 26,2 Мбайт (8%)
Выравнивание : Соединение по промежуткам
Продолжительность промежутка : 35 мс. (1,04 видеокадр)
Время предзагрузки промежутка : 408 мс.
Общее
Полное имя : M:\Sport\Трейси_Андерсон\TA_Hipcentric\TA_Continuity 1.2_Hipcentric\Day 191-200.avi
Формат : AVI
Формат/Информация : Audio Video Interleave
Размер файла : 308 Мбайт
Продолжительность : 29 м.
Общий поток : 1458 Кбит/сек
Библиотека кодирования : TMPGEnc 4.0 XPress Version. 4.7.7.307
Видео
Идентификатор : 0
Формат : MPEG-4 Visual
Профиль формата : Advanced Simple@L5
Параметр BVOP формата : 1
Параметр QPel формата : Нет
Параметр GMC формата : Без точки перехода
Параметр матрицы формата : Default (MPEG)
Режим смешивания : Сжатый битовый поток
Идентификатор кодека : XVID
Идентификатор кодека/Подсказка : XviD
Продолжительность : 29 м.
Битрейт : 1331 Кбит/сек
Ширина : 640 пикселей
Высота : 352 пикселя
Соотношение сторон : 16:9
Частота кадров : 29,970 кадров/сек
Цветовое пространство : YUV
Субдискретизация насыщенности : 4:2:0
Битовая глубина : 8 бит
Тип развёртки : Прогрессивная
Метод сжатия : С потерями
Бит/(Пиксели*Кадры) : 0.197
Размер потока : 281 Мбайт (91%)
Библиотека кодирования : XviD 64
Аудио
Идентификатор : 1
Формат : MPEG Audio
Версия формата : Version 1
Профиль формата : Layer 3
Режим : Joint stereo
Расширение режима : MS Stereo
Идентификатор кодека : 55
Идентификатор кодека/Подсказка : MP3
Продолжительность : 29 м.
Вид битрейта : Постоянный
Битрейт : 112 Кбит/сек
Каналы : 2 канала
Частота : 48,0 КГц
Метод сжатия : С потерями
Размер потока : 23,6 Мбайт (8%)
Выравнивание : Соединение по промежуткам
Продолжительность промежутка : 34 мс. (1,02 видеокадр)
Время предзагрузки промежутка : 408 мс.
Общее
Полное имя : M:\Sport\Трейси_Андерсон\TA_Hipcentric\TA_Continuity 1.2_Hipcentric\Day 201-210.avi
Формат : AVI
Формат/Информация : Audio Video Interleave
Размер файла : 332 Мбайт
Продолжительность : 31 м.
Общий поток : 1459 Кбит/сек
Библиотека кодирования : TMPGEnc 4.0 XPress Version. 4.7.7.307
Видео
Идентификатор : 0
Формат : MPEG-4 Visual
Профиль формата : Advanced Simple@L5
Параметр BVOP формата : 1
Параметр QPel формата : Нет
Параметр GMC формата : Без точки перехода
Параметр матрицы формата : Default (MPEG)
Режим смешивания : Сжатый битовый поток
Идентификатор кодека : XVID
Идентификатор кодека/Подсказка : XviD
Продолжительность : 31 м.
Битрейт : 1332 Кбит/сек
Ширина : 640 пикселей
Высота : 352 пикселя
Соотношение сторон : 16:9
Частота кадров : 29,970 кадров/сек
Цветовое пространство : YUV
Субдискретизация насыщенности : 4:2:0
Битовая глубина : 8 бит
Тип развёртки : Прогрессивная
Метод сжатия : С потерями
Бит/(Пиксели*Кадры) : 0.197
Размер потока : 303 Мбайт (91%)
Библиотека кодирования : XviD 64
Аудио
Идентификатор : 1
Формат : MPEG Audio
Версия формата : Version 1
Профиль формата : Layer 3
Режим : Joint stereo
Идентификатор кодека : 55
Идентификатор кодека/Подсказка : MP3
Продолжительность : 31 м.
Вид битрейта : Постоянный
Битрейт : 112 Кбит/сек
Каналы : 2 канала
Частота : 48,0 КГц
Метод сжатия : С потерями
Размер потока : 25,5 Мбайт (8%)
Выравнивание : Соединение по промежуткам
Продолжительность промежутка : 34 мс. (1,02 видеокадр)
Время предзагрузки промежутка : 408 мс.
Общее
Полное имя : M:\Sport\Трейси_Андерсон\TA_Hipcentric\TA_Continuity 1.2_Hipcentric\Day 211-220.avi
Формат : AVI
Формат/Информация : Audio Video Interleave
Размер файла : 312 Мбайт
Продолжительность : 29 м.
Общий поток : 1459 Кбит/сек
Библиотека кодирования : TMPGEnc 4.0 XPress Version. 4.7.7.307
Видео
Идентификатор : 0
Формат : MPEG-4 Visual
Профиль формата : Advanced Simple@L5
Параметр BVOP формата : 1
Параметр QPel формата : Нет
Параметр GMC формата : Без точки перехода
Параметр матрицы формата : Default (MPEG)
Режим смешивания : Сжатый битовый поток
Идентификатор кодека : XVID
Идентификатор кодека/Подсказка : XviD
Продолжительность : 29 м.
Битрейт : 1331 Кбит/сек
Ширина : 640 пикселей
Высота : 352 пикселя
Соотношение сторон : 16:9
Частота кадров : 29,970 кадров/сек
Цветовое пространство : YUV
Субдискретизация насыщенности : 4:2:0
Битовая глубина : 8 бит
Тип развёртки : Прогрессивная
Метод сжатия : С потерями
Бит/(Пиксели*Кадры) : 0.197
Размер потока : 285 Мбайт (91%)
Библиотека кодирования : XviD 64
Аудио
Идентификатор : 1
Формат : MPEG Audio
Версия формата : Version 1
Профиль формата : Layer 3
Режим : Joint stereo
Расширение режима : MS Stereo
Идентификатор кодека : 55
Идентификатор кодека/Подсказка : MP3
Продолжительность : 29 м.
Вид битрейта : Постоянный
Битрейт : 112 Кбит/сек
Каналы : 2 канала
Частота : 48,0 КГц
Метод сжатия : С потерями
Размер потока : 24,0 Мбайт (8%)
Выравнивание : Соединение по промежуткам
Продолжительность промежутка : 34 мс. (1,03 видеокадр)
Время предзагрузки промежутка : 408 мс.
Общее
Полное имя : M:\Sport\Трейси_Андерсон\TA_Hipcentric\TA_Continuity 1.2_Hipcentric\Day 221-230.avi
Формат : AVI
Формат/Информация : Audio Video Interleave
Размер файла : 354 Мбайт
Продолжительность : 33 м.
Общий поток : 1459 Кбит/сек
Библиотека кодирования : TMPGEnc 4.0 XPress Version. 4.7.7.307
Видео
Идентификатор : 0
Формат : MPEG-4 Visual
Профиль формата : Advanced Simple@L5
Параметр BVOP формата : 1
Параметр QPel формата : Нет
Параметр GMC формата : Без точки перехода
Параметр матрицы формата : Default (MPEG)
Режим смешивания : Сжатый битовый поток
Идентификатор кодека : XVID
Идентификатор кодека/Подсказка : XviD
Продолжительность : 33 м.
Битрейт : 1332 Кбит/сек
Ширина : 640 пикселей
Высота : 352 пикселя
Соотношение сторон : 16:9
Частота кадров : 29,970 кадров/сек
Цветовое пространство : YUV
Субдискретизация насыщенности : 4:2:0
Битовая глубина : 8 бит
Тип развёртки : Прогрессивная
Метод сжатия : С потерями
Бит/(Пиксели*Кадры) : 0.197
Размер потока : 323 Мбайт (91%)
Библиотека кодирования : XviD 64
Аудио
Идентификатор : 1
Формат : MPEG Audio
Версия формата : Version 1
Профиль формата : Layer 3
Режим : Joint stereo
Расширение режима : MS Stereo
Идентификатор кодека : 55
Идентификатор кодека/Подсказка : MP3
Продолжительность : 33 м.
Вид битрейта : Постоянный
Битрейт : 112 Кбит/сек
Каналы : 2 канала
Частота : 48,0 КГц
Метод сжатия : С потерями
Размер потока : 27,2 Мбайт (8%)
Выравнивание : Соединение по промежуткам
Продолжительность промежутка : 35 мс. (1,04 видеокадр)
Время предзагрузки промежутка : 408 мс.
Общее
Полное имя : M:\Sport\Трейси_Андерсон\TA_Hipcentric\TA_Continuity 1.2_Hipcentric\Day 231-240.avi
Формат : AVI
Формат/Информация : Audio Video Interleave
Размер файла : 284 Мбайт
Продолжительность : 27 м.
Общий поток : 1458 Кбит/сек
Библиотека кодирования : TMPGEnc 4.0 XPress Version. 4.7.7.307
Видео
Идентификатор : 0
Формат : MPEG-4 Visual
Профиль формата : Advanced Simple@L5
Параметр BVOP формата : 1
Параметр QPel формата : Нет
Параметр GMC формата : Без точки перехода
Параметр матрицы формата : Default (MPEG)
Режим смешивания : Сжатый битовый поток
Идентификатор кодека : XVID
Идентификатор кодека/Подсказка : XviD
Продолжительность : 27 м.
Битрейт : 1331 Кбит/сек
Ширина : 640 пикселей
Высота : 352 пикселя
Соотношение сторон : 16:9
Частота кадров : 29,970 кадров/сек
Цветовое пространство : YUV
Субдискретизация насыщенности : 4:2:0
Битовая глубина : 8 бит
Тип развёртки : Прогрессивная
Метод сжатия : С потерями
Бит/(Пиксели*Кадры) : 0.197
Размер потока : 259 Мбайт (91%)
Библиотека кодирования : XviD 64
Аудио
Идентификатор : 1
Формат : MPEG Audio
Версия формата : Version 1
Профиль формата : Layer 3
Режим : Joint stereo
Расширение режима : MS Stereo
Идентификатор кодека : 55
Идентификатор кодека/Подсказка : MP3
Продолжительность : 27 м.
Вид битрейта : Постоянный
Битрейт : 112 Кбит/сек
Каналы : 2 канала
Частота : 48,0 КГц
Метод сжатия : С потерями
Размер потока : 21,8 Мбайт (8%)
Выравнивание : Соединение по промежуткам
Продолжительность промежутка : 34 мс. (1,03 видеокадр)
Время предзагрузки промежутка : 408 мс.
Общее
Полное имя : M:\Sport\Трейси_Андерсон\TA_Hipcentric\TA_Continuity 1.2_Hipcentric\Day 241-250.avi
Формат : AVI
Формат/Информация : Audio Video Interleave
Размер файла : 348 Мбайт
Продолжительность : 33 м.
Общий поток : 1459 Кбит/сек
Библиотека кодирования : TMPGEnc 4.0 XPress Version. 4.7.7.307
Видео
Идентификатор : 0
Формат : MPEG-4 Visual
Профиль формата : Advanced Simple@L5
Параметр BVOP формата : 1
Параметр QPel формата : Нет
Параметр GMC формата : Без точки перехода
Параметр матрицы формата : Default (MPEG)
Режим смешивания : Сжатый битовый поток
Идентификатор кодека : XVID
Идентификатор кодека/Подсказка : XviD
Продолжительность : 33 м.
Битрейт : 1332 Кбит/сек
Ширина : 640 пикселей
Высота : 352 пикселя
Соотношение сторон : 16:9
Частота кадров : 29,970 кадров/сек
Цветовое пространство : YUV
Субдискретизация насыщенности : 4:2:0
Битовая глубина : 8 бит
Тип развёртки : Прогрессивная
Метод сжатия : С потерями
Бит/(Пиксели*Кадры) : 0.197
Размер потока : 318 Мбайт (91%)
Библиотека кодирования : XviD 64
Аудио
Идентификатор : 1
Формат : MPEG Audio
Версия формата : Version 1
Профиль формата : Layer 3
Режим : Joint stereo
Расширение режима : MS Stereo
Идентификатор кодека : 55
Идентификатор кодека/Подсказка : MP3
Продолжительность : 33 м.
Вид битрейта : Постоянный
Битрейт : 112 Кбит/сек
Каналы : 2 канала
Частота : 48,0 КГц
Метод сжатия : С потерями
Размер потока : 26,7 Мбайт (8%)
Выравнивание : Соединение по промежуткам
Продолжительность промежутка : 34 мс. (1,03 видеокадр)
Время предзагрузки промежутка : 408 мс.
Общее
Полное имя : M:\Sport\Трейси_Андерсон\TA_Hipcentric\TA_Continuity 1.2_Hipcentric\Day 251-260.avi
Формат : AVI
Формат/Информация : Audio Video Interleave
Размер файла : 254 Мбайт
Продолжительность : 24 м.
Общий поток : 1458 Кбит/сек
Библиотека кодирования : TMPGEnc 4.0 XPress Version. 4.7.7.307
Видео
Идентификатор : 0
Формат : MPEG-4 Visual
Профиль формата : Advanced Simple@L5
Параметр BVOP формата : 1
Параметр QPel формата : Нет
Параметр GMC формата : Без точки перехода
Параметр матрицы формата : Default (MPEG)
Режим смешивания : Сжатый битовый поток
Идентификатор кодека : XVID
Идентификатор кодека/Подсказка : XviD
Продолжительность : 24 м.
Битрейт : 1330 Кбит/сек
Ширина : 640 пикселей
Высота : 352 пикселя
Соотношение сторон : 16:9
Частота кадров : 29,970 кадров/сек
Цветовое пространство : YUV
Субдискретизация насыщенности : 4:2:0
Битовая глубина : 8 бит
Тип развёртки : Прогрессивная
Метод сжатия : С потерями
Бит/(Пиксели*Кадры) : 0.197
Размер потока : 232 Мбайт (91%)
Библиотека кодирования : XviD 64
Аудио
Идентификатор : 1
Формат : MPEG Audio
Версия формата : Version 1
Профиль формата : Layer 3
Режим : Joint stereo
Расширение режима : MS Stereo
Идентификатор кодека : 55
Идентификатор кодека/Подсказка : MP3
Продолжительность : 24 м.
Вид битрейта : Постоянный
Битрейт : 112 Кбит/сек
Каналы : 2 канала
Частота : 48,0 КГц
Метод сжатия : С потерями
Размер потока : 19,5 Мбайт (8%)
Выравнивание : Соединение по промежуткам
Продолжительность промежутка : 34 мс. (1,02 видеокадр)
Время предзагрузки промежутка : 408 мс.
Общее
Полное имя : M:\Sport\Трейси_Андерсон\TA_Hipcentric\TA_Continuity 1.2_Hipcentric\Day 261-270.avi
Формат : AVI
Формат/Информация : Audio Video Interleave
Размер файла : 362 Мбайт
Продолжительность : 34 м.
Общий поток : 1459 Кбит/сек
Библиотека кодирования : TMPGEnc 4.0 XPress Version. 4.7.7.307
Видео
Идентификатор : 0
Формат : MPEG-4 Visual
Профиль формата : Advanced Simple@L5
Параметр BVOP формата : 1
Параметр QPel формата : Нет
Параметр GMC формата : Без точки перехода
Параметр матрицы формата : Default (MPEG)
Режим смешивания : Сжатый битовый поток
Идентификатор кодека : XVID
Идентификатор кодека/Подсказка : XviD
Продолжительность : 34 м.
Битрейт : 1332 Кбит/сек
Ширина : 640 пикселей
Высота : 352 пикселя
Соотношение сторон : 16:9
Частота кадров : 29,970 кадров/сек
Цветовое пространство : YUV
Субдискретизация насыщенности : 4:2:0
Битовая глубина : 8 бит
Тип развёртки : Прогрессивная
Метод сжатия : С потерями
Бит/(Пиксели*Кадры) : 0.197
Размер потока : 331 Мбайт (91%)
Библиотека кодирования : XviD 64
Аудио
Идентификатор : 1
Формат : MPEG Audio
Версия формата : Version 1
Профиль формата : Layer 3
Режим : Joint stereo
Расширение режима : MS Stereo
Идентификатор кодека : 55
Идентификатор кодека/Подсказка : MP3
Продолжительность : 34 м.
Вид битрейта : Постоянный
Битрейт : 112 Кбит/сек
Каналы : 2 канала
Частота : 48,0 КГц
Метод сжатия : С потерями
Размер потока : 27,8 Мбайт (8%)
Выравнивание : Соединение по промежуткам
Продолжительность промежутка : 34 мс. (1,02 видеокадр)
Время предзагрузки промежутка : 408 мс.
[teatrix.ru].t13383.torrent 
Торрент: Зарегистрирован [ 2016-01-22 01:35 ] · FC9B067E72D4E39273D78E225D1099A0627A630E

Скачать .torrent

Скачать

19 KB

Статус: проверено
Скачан: 0 раз
Размер: 3.42 GB
terms.php



Быстрый ответ

Имя:

      
Для отправки сообщений необходимо включить JavaScript
Показать сообщения:    

Текущее время: 11-Дек 11:02

Часовой пояс: UTC + 3


Вы можете начинать темы
Вы можете отвечать на сообщения
Вы не можете редактировать свои сообщения
Вы не можете удалять свои сообщения
Вы не можете голосовать в опросах
Вы не можете прикреплять файлы к сообщениям
Вы можете скачивать файлы