Metamorphosis Continuity 1.1 by Tracy Anderson (Hipcentric) [2011, Фитнес, DVDRip, ENG]


Статистика раздачи [Обновить пиров]
Размер:  3.46 GB   |    Зарегистрирован:  10 месяцев 18 дней   |    Скачан:  1 раз

Полного источника не было: 4 месяца 9 дней

 
   
 
 
 

[Цитировать]

Metamorphosis Continuity 1.1 by Tracy Anderson (Hipcentric) [2011, Фитнес, DVDRip, ENG]
Страна: США
Тематика: фитнес
Тип раздаваемого материала: Видеоурок
Продолжительность: указана отдельно
Год выпуска: 2011
Язык: Английский
Перевод: Отсутствует
Описание: Metamorphosis - 90-дневная программа от известного тренера Трейси Андерсон (Tracy Anderson), которая тренирует таких звезд, как Гвинет Палтроу, Кортни Кокс, Шакира и др.
Программа состоит из 9 силовых тренировок, каждую из которых нужно делать на протяжении 10 дней, и одной кардиотренировки (ее нужно делать на протяжении всех 90 дней). Metamorphosis разработан для четырех типов фигур: абцентрики (те, у кого главной проблемной зоной является живот), хипцентрики (те, у кого главной проблемной зоной являются бедра), глюцентрики (те, у кого главной проблемной зоной являются ягодицы) и омницентрики (те, кто полнеет везде относительно равномерно). В данной раздаче вы найдете продолжение программы Метаморфоз для Хипцентриков (4-6 й месяц тренировки).
Для занятий вам потребуются: коврик, гантели (не более 1,5 кг). Тем, кто хочет похудеть, Трейси рекомендует делать сначала силовую тренировку, а после нее - кардио.
Доп. информация: Бонусы для рук и кардио-тренировка для всех типов фигур одинаковы.
Качество: DVDRip
Формат: AVI
Видео кодек: XviD
Аудио кодек: MP3, AC3
Видео1: XviD MPEG-4 640x352 29.97fps 1336kbps
Аудио1: MPEG Layer3 48000Hz 112kbps 2ch
Видео2: XviD MPEG-4 640x368 23.97fps 1130kbps
Аудио2: AC3 Dolby Digital 48000Hz 192kbps 2ch

Продолжительность тренировок

91-100 00:31:59
101-110 00:32:13
111-120 00:31:03
121-130 00:31:48
131-140 00:28:24
141-150 00:27:20
151-160 00:29:21
161-170 00:31:53
171-180 00:27:39
Bonus Arms 91-100 00:04:12
Bonus Arms 101-110 00:04:31
Bonus Arms 111-120 00:04:12
Bonus Arms 121-130 00:04:39
Bonus Arms 131-140 00:05:43
Bonus Arms 141-150 00:04:35
Bonus Arms 151-160 00:03:16
Bonus Arms 161-170 00:04:16
Bonus Arms 171-180 00:03:33
Кардио тренировка 00:30:20

MediaInfo

Общее
Полное имя : M:\Sport\Трейси_Андерсон\TA_Hipcentric\TA_Continuity 1.1_Hipcentric\Bonus Arms\Bonus Arms 101-110.avi
Формат : AVI
Формат/Информация : Audio Video Interleave
Размер файла : 44,8 Мбайт
Продолжительность : 4 м. 31 с.
Общий поток : 1384 Кбит/сек
Программа кодирования : VirtualDubMod 1.5.4.1 (build 2178/release)
Библиотека кодирования : VirtualDubMod build 2178/release
Видео
Идентификатор : 0
Формат : MPEG-4 Visual
Профиль формата : Advanced Simple@L5
Параметр BVOP формата : 1
Параметр QPel формата : Нет
Параметр GMC формата : Без точки перехода
Параметр матрицы формата : Выборочная
Идентификатор кодека : XVID
Идентификатор кодека/Подсказка : XviD
Продолжительность : 4 м. 31 с.
Битрейт : 1185 Кбит/сек
Ширина : 640 пикселей
Высота : 368 пикселей
Соотношение сторон : 1,739
Частота кадров : 23,976 кадра/сек
Цветовое пространство : YUV
Субдискретизация насыщенности : 4:2:0
Битовая глубина : 8 бит
Тип развёртки : Прогрессивная
Метод сжатия : С потерями
Бит/(Пиксели*Кадры) : 0.210
Размер потока : 38,3 Мбайт (86%)
Библиотека кодирования : XviD 64
Аудио
Идентификатор : 1
Формат : AC-3
Формат/Информация : Audio Coding 3
Расширение режима : CM (complete main)
Параметр Endianness формата : Big
Идентификатор кодека : 2000
Продолжительность : 4 м. 31 с.
Вид битрейта : Постоянный
Битрейт : 192 Кбит/сек
Каналы : 2 канала
Расположение каналов : Front: L R
Частота : 48,0 КГц
Битовая глубина : 16 бит
Метод сжатия : С потерями
Размер потока : 6,21 Мбайт (14%)
Выравнивание : Разделение по промежуткам
Продолжительность промежутка : 96 мс. (2,30 видеокадра)
Время предзагрузки промежутка : 96 мс.
Общее
Полное имя : M:\Sport\Трейси_Андерсон\TA_Hipcentric\TA_Continuity 1.1_Hipcentric\Bonus Arms\Bonus Arms 111-120.avi
Формат : AVI
Формат/Информация : Audio Video Interleave
Размер файла : 42,4 Мбайт
Продолжительность : 4 м. 12 с.
Общий поток : 1409 Кбит/сек
Программа кодирования : VirtualDubMod 1.5.4.1 (build 2178/release)
Библиотека кодирования : VirtualDubMod build 2178/release
Видео
Идентификатор : 0
Формат : MPEG-4 Visual
Профиль формата : Advanced Simple@L5
Параметр BVOP формата : 1
Параметр QPel формата : Нет
Параметр GMC формата : Без точки перехода
Параметр матрицы формата : Выборочная
Идентификатор кодека : XVID
Идентификатор кодека/Подсказка : XviD
Продолжительность : 4 м. 12 с.
Битрейт : 1210 Кбит/сек
Ширина : 640 пикселей
Высота : 368 пикселей
Соотношение сторон : 1,739
Частота кадров : 23,976 кадра/сек
Цветовое пространство : YUV
Субдискретизация насыщенности : 4:2:0
Битовая глубина : 8 бит
Тип развёртки : Прогрессивная
Метод сжатия : С потерями
Бит/(Пиксели*Кадры) : 0.214
Размер потока : 36,4 Мбайт (86%)
Библиотека кодирования : XviD 64
Аудио
Идентификатор : 1
Формат : AC-3
Формат/Информация : Audio Coding 3
Расширение режима : CM (complete main)
Параметр Endianness формата : Big
Идентификатор кодека : 2000
Продолжительность : 4 м. 12 с.
Вид битрейта : Постоянный
Битрейт : 192 Кбит/сек
Каналы : 2 канала
Расположение каналов : Front: L R
Частота : 48,0 КГц
Битовая глубина : 16 бит
Метод сжатия : С потерями
Размер потока : 5,78 Мбайт (14%)
Выравнивание : Разделение по промежуткам
Продолжительность промежутка : 96 мс. (2,30 видеокадра)
Время предзагрузки промежутка : 96 мс.
Общее
Полное имя : M:\Sport\Трейси_Андерсон\TA_Hipcentric\TA_Continuity 1.1_Hipcentric\Bonus Arms\Bonus Arms 121-130.avi
Формат : AVI
Формат/Информация : Audio Video Interleave
Размер файла : 44,3 Мбайт
Продолжительность : 4 м. 39 с.
Общий поток : 1330 Кбит/сек
Программа кодирования : VirtualDubMod 1.5.4.1 (build 2178/release)
Библиотека кодирования : VirtualDubMod build 2178/release
Видео
Идентификатор : 0
Формат : MPEG-4 Visual
Профиль формата : Advanced Simple@L5
Параметр BVOP формата : 1
Параметр QPel формата : Нет
Параметр GMC формата : Без точки перехода
Параметр матрицы формата : Выборочная
Идентификатор кодека : XVID
Идентификатор кодека/Подсказка : XviD
Продолжительность : 4 м. 39 с.
Битрейт : 1131 Кбит/сек
Ширина : 640 пикселей
Высота : 368 пикселей
Соотношение сторон : 1,739
Частота кадров : 23,976 кадра/сек
Цветовое пространство : YUV
Субдискретизация насыщенности : 4:2:0
Битовая глубина : 8 бит
Тип развёртки : Прогрессивная
Метод сжатия : С потерями
Бит/(Пиксели*Кадры) : 0.200
Размер потока : 37,6 Мбайт (85%)
Библиотека кодирования : XviD 64
Аудио
Идентификатор : 1
Формат : AC-3
Формат/Информация : Audio Coding 3
Расширение режима : CM (complete main)
Параметр Endianness формата : Big
Идентификатор кодека : 2000
Продолжительность : 4 м. 39 с.
Вид битрейта : Постоянный
Битрейт : 192 Кбит/сек
Каналы : 2 канала
Расположение каналов : Front: L R
Частота : 48,0 КГц
Битовая глубина : 16 бит
Метод сжатия : С потерями
Размер потока : 6,39 Мбайт (14%)
Выравнивание : Разделение по промежуткам
Продолжительность промежутка : 96 мс. (2,30 видеокадра)
Время предзагрузки промежутка : 96 мс.
Общее
Полное имя : M:\Sport\Трейси_Андерсон\TA_Hipcentric\TA_Continuity 1.1_Hipcentric\Bonus Arms\Bonus Arms 131-140.avi
Формат : AVI
Формат/Информация : Audio Video Interleave
Размер файла : 53,0 Мбайт
Продолжительность : 5 м. 43 с.
Общий поток : 1296 Кбит/сек
Программа кодирования : VirtualDubMod 1.5.4.1 (build 2178/release)
Библиотека кодирования : VirtualDubMod build 2178/release
Видео
Идентификатор : 0
Формат : MPEG-4 Visual
Профиль формата : Advanced Simple@L5
Параметр BVOP формата : 1
Параметр QPel формата : Нет
Параметр GMC формата : Без точки перехода
Параметр матрицы формата : Выборочная
Идентификатор кодека : XVID
Идентификатор кодека/Подсказка : XviD
Продолжительность : 5 м. 43 с.
Битрейт : 1097 Кбит/сек
Ширина : 640 пикселей
Высота : 368 пикселей
Соотношение сторон : 1,739
Частота кадров : 23,976 кадра/сек
Цветовое пространство : YUV
Субдискретизация насыщенности : 4:2:0
Битовая глубина : 8 бит
Тип развёртки : Прогрессивная
Метод сжатия : С потерями
Бит/(Пиксели*Кадры) : 0.194
Размер потока : 44,9 Мбайт (85%)
Библиотека кодирования : XviD 64
Аудио
Идентификатор : 1
Формат : AC-3
Формат/Информация : Audio Coding 3
Расширение режима : CM (complete main)
Параметр Endianness формата : Big
Идентификатор кодека : 2000
Продолжительность : 5 м. 43 с.
Вид битрейта : Постоянный
Битрейт : 192 Кбит/сек
Каналы : 2 канала
Расположение каналов : Front: L R
Частота : 48,0 КГц
Битовая глубина : 16 бит
Метод сжатия : С потерями
Размер потока : 7,85 Мбайт (15%)
Выравнивание : Разделение по промежуткам
Продолжительность промежутка : 96 мс. (2,30 видеокадра)
Время предзагрузки промежутка : 96 мс.
Общее
Полное имя : M:\Sport\Трейси_Андерсон\TA_Hipcentric\TA_Continuity 1.1_Hipcentric\Bonus Arms\Bonus Arms 141-150.avi
Формат : AVI
Формат/Информация : Audio Video Interleave
Размер файла : 44,4 Мбайт
Продолжительность : 4 м. 35 с.
Общий поток : 1353 Кбит/сек
Программа кодирования : VirtualDubMod 1.5.4.1 (build 2178/release)
Библиотека кодирования : VirtualDubMod build 2178/release
Видео
Идентификатор : 0
Формат : MPEG-4 Visual
Профиль формата : Advanced Simple@L5
Параметр BVOP формата : 1
Параметр QPel формата : Нет
Параметр GMC формата : Без точки перехода
Параметр матрицы формата : Выборочная
Идентификатор кодека : XVID
Идентификатор кодека/Подсказка : XviD
Продолжительность : 4 м. 35 с.
Битрейт : 1154 Кбит/сек
Ширина : 640 пикселей
Высота : 368 пикселей
Соотношение сторон : 1,739
Частота кадров : 23,976 кадра/сек
Цветовое пространство : YUV
Субдискретизация насыщенности : 4:2:0
Битовая глубина : 8 бит
Тип развёртки : Прогрессивная
Метод сжатия : С потерями
Бит/(Пиксели*Кадры) : 0.204
Размер потока : 37,8 Мбайт (85%)
Библиотека кодирования : XviD 64
Аудио
Идентификатор : 1
Формат : AC-3
Формат/Информация : Audio Coding 3
Расширение режима : CM (complete main)
Параметр Endianness формата : Big
Идентификатор кодека : 2000
Продолжительность : 4 м. 35 с.
Вид битрейта : Постоянный
Битрейт : 192 Кбит/сек
Каналы : 2 канала
Расположение каналов : Front: L R
Частота : 48,0 КГц
Битовая глубина : 16 бит
Метод сжатия : С потерями
Размер потока : 6,30 Мбайт (14%)
Выравнивание : Разделение по промежуткам
Продолжительность промежутка : 96 мс. (2,30 видеокадра)
Время предзагрузки промежутка : 96 мс.
Общее
Полное имя : M:\Sport\Трейси_Андерсон\TA_Hipcentric\TA_Continuity 1.1_Hipcentric\Bonus Arms\Bonus Arms 151-160.avi
Формат : AVI
Формат/Информация : Audio Video Interleave
Размер файла : 36,5 Мбайт
Продолжительность : 3 м. 16 с.
Общий поток : 1556 Кбит/сек
Программа кодирования : VirtualDubMod 1.5.4.1 (build 2178/release)
Библиотека кодирования : VirtualDubMod build 2178/release
Видео
Идентификатор : 0
Формат : MPEG-4 Visual
Профиль формата : Advanced Simple@L5
Параметр BVOP формата : 1
Параметр QPel формата : Нет
Параметр GMC формата : Без точки перехода
Параметр матрицы формата : Выборочная
Идентификатор кодека : XVID
Идентификатор кодека/Подсказка : XviD
Продолжительность : 3 м. 16 с.
Битрейт : 1357 Кбит/сек
Ширина : 640 пикселей
Высота : 368 пикселей
Соотношение сторон : 1,739
Частота кадров : 23,976 кадра/сек
Цветовое пространство : YUV
Субдискретизация насыщенности : 4:2:0
Битовая глубина : 8 бит
Тип развёртки : Прогрессивная
Метод сжатия : С потерями
Бит/(Пиксели*Кадры) : 0.240
Размер потока : 31,8 Мбайт (87%)
Библиотека кодирования : XviD 64
Аудио
Идентификатор : 1
Формат : AC-3
Формат/Информация : Audio Coding 3
Расширение режима : CM (complete main)
Параметр Endianness формата : Big
Идентификатор кодека : 2000
Продолжительность : 3 м. 16 с.
Вид битрейта : Постоянный
Битрейт : 192 Кбит/сек
Каналы : 2 канала
Расположение каналов : Front: L R
Частота : 48,0 КГц
Битовая глубина : 16 бит
Метод сжатия : С потерями
Размер потока : 4,50 Мбайт (12%)
Выравнивание : Разделение по промежуткам
Продолжительность промежутка : 96 мс. (2,30 видеокадра)
Время предзагрузки промежутка : 96 мс.
Общее
Полное имя : M:\Sport\Трейси_Андерсон\TA_Hipcentric\TA_Continuity 1.1_Hipcentric\Bonus Arms\Bonus Arms 161-170.avi
Формат : AVI
Формат/Информация : Audio Video Interleave
Размер файла : 44,6 Мбайт
Продолжительность : 4 м. 16 с.
Общий поток : 1458 Кбит/сек
Программа кодирования : VirtualDubMod 1.5.4.1 (build 2178/release)
Библиотека кодирования : VirtualDubMod build 2178/release
Видео
Идентификатор : 0
Формат : MPEG-4 Visual
Профиль формата : Advanced Simple@L5
Параметр BVOP формата : 1
Параметр QPel формата : Нет
Параметр GMC формата : Без точки перехода
Параметр матрицы формата : Выборочная
Идентификатор кодека : XVID
Идентификатор кодека/Подсказка : XviD
Продолжительность : 4 м. 16 с.
Битрейт : 1259 Кбит/сек
Ширина : 640 пикселей
Высота : 368 пикселей
Соотношение сторон : 1,739
Частота кадров : 23,976 кадра/сек
Цветовое пространство : YUV
Субдискретизация насыщенности : 4:2:0
Битовая глубина : 8 бит
Тип развёртки : Прогрессивная
Метод сжатия : С потерями
Бит/(Пиксели*Кадры) : 0.223
Размер потока : 38,5 Мбайт (86%)
Библиотека кодирования : XviD 64
Аудио
Идентификатор : 1
Формат : AC-3
Формат/Информация : Audio Coding 3
Расширение режима : CM (complete main)
Параметр Endianness формата : Big
Идентификатор кодека : 2000
Продолжительность : 4 м. 16 с.
Вид битрейта : Постоянный
Битрейт : 192 Кбит/сек
Каналы : 2 канала
Расположение каналов : Front: L R
Частота : 48,0 КГц
Битовая глубина : 16 бит
Метод сжатия : С потерями
Размер потока : 5,88 Мбайт (13%)
Выравнивание : Разделение по промежуткам
Продолжительность промежутка : 96 мс. (2,30 видеокадра)
Время предзагрузки промежутка : 96 мс.
Общее
Полное имя : M:\Sport\Трейси_Андерсон\TA_Hipcentric\TA_Continuity 1.1_Hipcentric\Bonus Arms\Bonus Arms 171-180.avi
Формат : AVI
Формат/Информация : Audio Video Interleave
Размер файла : 33,0 Мбайт
Продолжительность : 3 м. 33 с.
Общий поток : 1295 Кбит/сек
Программа кодирования : VirtualDubMod 1.5.4.1 (build 2178/release)
Библиотека кодирования : VirtualDubMod build 2178/release
Видео
Идентификатор : 0
Формат : MPEG-4 Visual
Профиль формата : Advanced Simple@L5
Параметр BVOP формата : 1
Параметр QPel формата : Нет
Параметр GMC формата : Без точки перехода
Параметр матрицы формата : Выборочная
Идентификатор кодека : XVID
Идентификатор кодека/Подсказка : XviD
Продолжительность : 3 м. 33 с.
Битрейт : 1096 Кбит/сек
Ширина : 640 пикселей
Высота : 368 пикселей
Соотношение сторон : 1,739
Частота кадров : 23,976 кадра/сек
Цветовое пространство : YUV
Субдискретизация насыщенности : 4:2:0
Битовая глубина : 8 бит
Тип развёртки : Прогрессивная
Метод сжатия : С потерями
Бит/(Пиксели*Кадры) : 0.194
Размер потока : 27,9 Мбайт (85%)
Библиотека кодирования : XviD 64
Аудио
Идентификатор : 1
Формат : AC-3
Формат/Информация : Audio Coding 3
Расширение режима : CM (complete main)
Параметр Endianness формата : Big
Идентификатор кодека : 2000
Продолжительность : 3 м. 33 с.
Вид битрейта : Постоянный
Битрейт : 192 Кбит/сек
Каналы : 2 канала
Расположение каналов : Front: L R
Частота : 48,0 КГц
Битовая глубина : 16 бит
Метод сжатия : С потерями
Размер потока : 4,88 Мбайт (15%)
Выравнивание : Разделение по промежуткам
Продолжительность промежутка : 96 мс. (2,30 видеокадра)
Время предзагрузки промежутка : 96 мс.
Общее
Полное имя : M:\Sport\Трейси_Андерсон\TA_Hipcentric\TA_Continuity 1.1_Hipcentric\Bonus Arms\Bonus Arms 91-100.avi
Формат : AVI
Формат/Информация : Audio Video Interleave
Размер файла : 42,4 Мбайт
Продолжительность : 4 м. 12 с.
Общий поток : 1409 Кбит/сек
Программа кодирования : VirtualDubMod 1.5.4.1 (build 2178/release)
Библиотека кодирования : VirtualDubMod build 2178/release
Видео
Идентификатор : 0
Формат : MPEG-4 Visual
Профиль формата : Advanced Simple@L5
Параметр BVOP формата : 1
Параметр QPel формата : Нет
Параметр GMC формата : Без точки перехода
Параметр матрицы формата : Выборочная
Идентификатор кодека : XVID
Идентификатор кодека/Подсказка : XviD
Продолжительность : 4 м. 12 с.
Битрейт : 1210 Кбит/сек
Ширина : 640 пикселей
Высота : 368 пикселей
Соотношение сторон : 1,739
Частота кадров : 23,976 кадра/сек
Цветовое пространство : YUV
Субдискретизация насыщенности : 4:2:0
Битовая глубина : 8 бит
Тип развёртки : Прогрессивная
Метод сжатия : С потерями
Бит/(Пиксели*Кадры) : 0.214
Размер потока : 36,4 Мбайт (86%)
Библиотека кодирования : XviD 64
Аудио
Идентификатор : 1
Формат : AC-3
Формат/Информация : Audio Coding 3
Расширение режима : CM (complete main)
Параметр Endianness формата : Big
Идентификатор кодека : 2000
Продолжительность : 4 м. 12 с.
Вид битрейта : Постоянный
Битрейт : 192 Кбит/сек
Каналы : 2 канала
Расположение каналов : Front: L R
Частота : 48,0 КГц
Битовая глубина : 16 бит
Метод сжатия : С потерями
Размер потока : 5,78 Мбайт (14%)
Выравнивание : Разделение по промежуткам
Продолжительность промежутка : 96 мс. (2,30 видеокадра)
Время предзагрузки промежутка : 96 мс.
Общее
Полное имя : M:\Sport\Трейси_Андерсон\TA_Hipcentric\TA_Continuity 1.1_Hipcentric\Cardio1_1.avi
Формат : AVI
Формат/Информация : Audio Video Interleave
Размер файла : 325 Мбайт
Продолжительность : 30 м.
Общий поток : 1497 Кбит/сек
Программа кодирования : VirtualDubMod 1.5.4.1 (build 2178/release)
Библиотека кодирования : VirtualDubMod build 2178/release
Видео
Идентификатор : 0
Формат : MPEG-4 Visual
Профиль формата : Advanced Simple@L5
Параметр BVOP формата : 1
Параметр QPel формата : Нет
Параметр GMC формата : Без точки перехода
Параметр матрицы формата : Выборочная
Идентификатор кодека : XVID
Идентификатор кодека/Подсказка : XviD
Продолжительность : 30 м.
Битрейт : 1299 Кбит/сек
Ширина : 640 пикселей
Высота : 368 пикселей
Соотношение сторон : 1,739
Частота кадров : 23,976 кадра/сек
Цветовое пространство : YUV
Субдискретизация насыщенности : 4:2:0
Битовая глубина : 8 бит
Тип развёртки : Прогрессивная
Метод сжатия : С потерями
Бит/(Пиксели*Кадры) : 0.230
Размер потока : 282 Мбайт (87%)
Библиотека кодирования : XviD 64
Аудио
Идентификатор : 1
Формат : AC-3
Формат/Информация : Audio Coding 3
Расширение режима : CM (complete main)
Параметр Endianness формата : Big
Идентификатор кодека : 2000
Продолжительность : 30 м.
Вид битрейта : Постоянный
Битрейт : 192 Кбит/сек
Каналы : 2 канала
Расположение каналов : Front: L R
Частота : 48,0 КГц
Битовая глубина : 16 бит
Метод сжатия : С потерями
Размер потока : 41,7 Мбайт (13%)
Выравнивание : Разделение по промежуткам
Продолжительность промежутка : 96 мс. (2,30 видеокадра)
Время предзагрузки промежутка : 96 мс.
Общее
Полное имя : M:\Sport\Трейси_Андерсон\TA_Hipcentric\TA_Continuity 1.1_Hipcentric\Day 101-110.avi
Формат : AVI
Формат/Информация : Audio Video Interleave
Размер файла : 336 Мбайт
Продолжительность : 32 м.
Общий поток : 1460 Кбит/сек
Библиотека кодирования : TMPGEnc 4.0 XPress Version. 4.7.7.307
Видео
Идентификатор : 0
Формат : MPEG-4 Visual
Профиль формата : Advanced Simple@L5
Параметр BVOP формата : 1
Параметр QPel формата : Нет
Параметр GMC формата : Без точки перехода
Параметр матрицы формата : Default (MPEG)
Режим смешивания : Сжатый битовый поток
Идентификатор кодека : XVID
Идентификатор кодека/Подсказка : XviD
Продолжительность : 32 м.
Битрейт : 1332 Кбит/сек
Ширина : 640 пикселей
Высота : 352 пикселя
Соотношение сторон : 16:9
Частота кадров : 29,970 кадров/сек
Цветовое пространство : YUV
Субдискретизация насыщенности : 4:2:0
Битовая глубина : 8 бит
Тип развёртки : Прогрессивная
Метод сжатия : С потерями
Бит/(Пиксели*Кадры) : 0.197
Размер потока : 307 Мбайт (91%)
Библиотека кодирования : XviD 64
Аудио
Идентификатор : 1
Формат : MPEG Audio
Версия формата : Version 1
Профиль формата : Layer 3
Режим : Joint stereo
Расширение режима : MS Stereo
Идентификатор кодека : 55
Идентификатор кодека/Подсказка : MP3
Продолжительность : 32 м.
Вид битрейта : Постоянный
Битрейт : 112 Кбит/сек
Каналы : 2 канала
Частота : 48,0 КГц
Метод сжатия : С потерями
Размер потока : 25,8 Мбайт (8%)
Выравнивание : Соединение по промежуткам
Продолжительность промежутка : 34 мс. (1,02 видеокадр)
Время предзагрузки промежутка : 408 мс.
Общее
Полное имя : M:\Sport\Трейси_Андерсон\TA_Hipcentric\TA_Continuity 1.1_Hipcentric\Day 111-120.avi
Формат : AVI
Формат/Информация : Audio Video Interleave
Размер файла : 324 Мбайт
Продолжительность : 31 м.
Общий поток : 1459 Кбит/сек
Библиотека кодирования : TMPGEnc 4.0 XPress Version. 4.7.7.307
Видео
Идентификатор : 0
Формат : MPEG-4 Visual
Профиль формата : Advanced Simple@L5
Параметр BVOP формата : 1
Параметр QPel формата : Нет
Параметр GMC формата : Без точки перехода
Параметр матрицы формата : Default (MPEG)
Режим смешивания : Сжатый битовый поток
Идентификатор кодека : XVID
Идентификатор кодека/Подсказка : XviD
Продолжительность : 31 м.
Битрейт : 1332 Кбит/сек
Ширина : 640 пикселей
Высота : 352 пикселя
Соотношение сторон : 16:9
Частота кадров : 29,970 кадров/сек
Цветовое пространство : YUV
Субдискретизация насыщенности : 4:2:0
Битовая глубина : 8 бит
Тип развёртки : Прогрессивная
Метод сжатия : С потерями
Бит/(Пиксели*Кадры) : 0.197
Размер потока : 296 Мбайт (91%)
Библиотека кодирования : XviD 64
Аудио
Идентификатор : 1
Формат : MPEG Audio
Версия формата : Version 1
Профиль формата : Layer 3
Режим : Joint stereo
Расширение режима : MS Stereo
Идентификатор кодека : 55
Идентификатор кодека/Подсказка : MP3
Продолжительность : 31 м.
Вид битрейта : Постоянный
Битрейт : 112 Кбит/сек
Каналы : 2 канала
Частота : 48,0 КГц
Метод сжатия : С потерями
Размер потока : 24,9 Мбайт (8%)
Выравнивание : Соединение по промежуткам
Продолжительность промежутка : 34 мс. (1,02 видеокадр)
Время предзагрузки промежутка : 408 мс.
Общее
Полное имя : M:\Sport\Трейси_Андерсон\TA_Hipcentric\TA_Continuity 1.1_Hipcentric\Day 121-130.avi
Формат : AVI
Формат/Информация : Audio Video Interleave
Размер файла : 332 Мбайт
Продолжительность : 31 м.
Общий поток : 1459 Кбит/сек
Библиотека кодирования : TMPGEnc 4.0 XPress Version. 4.7.7.307
Видео
Идентификатор : 0
Формат : MPEG-4 Visual
Профиль формата : Advanced Simple@L5
Параметр BVOP формата : 1
Параметр QPel формата : Нет
Параметр GMC формата : Без точки перехода
Параметр матрицы формата : Default (MPEG)
Режим смешивания : Сжатый битовый поток
Идентификатор кодека : XVID
Идентификатор кодека/Подсказка : XviD
Продолжительность : 31 м.
Битрейт : 1332 Кбит/сек
Ширина : 640 пикселей
Высота : 352 пикселя
Соотношение сторон : 16:9
Частота кадров : 29,970 кадров/сек
Цветовое пространство : YUV
Субдискретизация насыщенности : 4:2:0
Битовая глубина : 8 бит
Тип развёртки : Прогрессивная
Метод сжатия : С потерями
Бит/(Пиксели*Кадры) : 0.197
Размер потока : 303 Мбайт (91%)
Библиотека кодирования : XviD 64
Аудио
Идентификатор : 1
Формат : MPEG Audio
Версия формата : Version 1
Профиль формата : Layer 3
Режим : Joint stereo
Расширение режима : MS Stereo
Идентификатор кодека : 55
Идентификатор кодека/Подсказка : MP3
Продолжительность : 31 м.
Вид битрейта : Постоянный
Битрейт : 112 Кбит/сек
Каналы : 2 канала
Частота : 48,0 КГц
Метод сжатия : С потерями
Размер потока : 25,5 Мбайт (8%)
Выравнивание : Соединение по промежуткам
Продолжительность промежутка : 34 мс. (1,02 видеокадр)
Время предзагрузки промежутка : 432 мс.
Общее
Полное имя : M:\Sport\Трейси_Андерсон\TA_Hipcentric\TA_Continuity 1.1_Hipcentric\Day 131-140.avi
Формат : AVI
Формат/Информация : Audio Video Interleave
Размер файла : 296 Мбайт
Продолжительность : 28 м.
Общий поток : 1459 Кбит/сек
Библиотека кодирования : TMPGEnc 4.0 XPress Version. 4.7.7.307
Видео
Идентификатор : 0
Формат : MPEG-4 Visual
Профиль формата : Advanced Simple@L5
Параметр BVOP формата : 1
Параметр QPel формата : Нет
Параметр GMC формата : Без точки перехода
Параметр матрицы формата : Default (MPEG)
Режим смешивания : Сжатый битовый поток
Идентификатор кодека : XVID
Идентификатор кодека/Подсказка : XviD
Продолжительность : 28 м.
Битрейт : 1331 Кбит/сек
Ширина : 640 пикселей
Высота : 352 пикселя
Соотношение сторон : 16:9
Частота кадров : 29,970 кадров/сек
Цветовое пространство : YUV
Субдискретизация насыщенности : 4:2:0
Битовая глубина : 8 бит
Тип развёртки : Прогрессивная
Метод сжатия : С потерями
Бит/(Пиксели*Кадры) : 0.197
Размер потока : 271 Мбайт (91%)
Библиотека кодирования : XviD 64
Аудио
Идентификатор : 1
Формат : MPEG Audio
Версия формата : Version 1
Профиль формата : Layer 3
Режим : Joint stereo
Расширение режима : MS Stereo
Идентификатор кодека : 55
Идентификатор кодека/Подсказка : MP3
Продолжительность : 28 м.
Вид битрейта : Постоянный
Битрейт : 112 Кбит/сек
Каналы : 2 канала
Частота : 48,0 КГц
Метод сжатия : С потерями
Размер потока : 22,8 Мбайт (8%)
Выравнивание : Соединение по промежуткам
Продолжительность промежутка : 35 мс. (1,04 видеокадр)
Время предзагрузки промежутка : 408 мс.
Общее
Полное имя : M:\Sport\Трейси_Андерсон\TA_Hipcentric\TA_Continuity 1.1_Hipcentric\Day 141-150.avi
Формат : AVI
Формат/Информация : Audio Video Interleave
Размер файла : 285 Мбайт
Продолжительность : 27 м.
Общий поток : 1459 Кбит/сек
Библиотека кодирования : TMPGEnc 4.0 XPress Version. 4.7.7.307
Видео
Идентификатор : 0
Формат : MPEG-4 Visual
Профиль формата : Advanced Simple@L5
Параметр BVOP формата : 1
Параметр QPel формата : Нет
Параметр GMC формата : Без точки перехода
Параметр матрицы формата : Default (MPEG)
Режим смешивания : Сжатый битовый поток
Идентификатор кодека : XVID
Идентификатор кодека/Подсказка : XviD
Продолжительность : 27 м.
Битрейт : 1332 Кбит/сек
Ширина : 640 пикселей
Высота : 352 пикселя
Соотношение сторон : 16:9
Частота кадров : 29,970 кадров/сек
Цветовое пространство : YUV
Субдискретизация насыщенности : 4:2:0
Битовая глубина : 8 бит
Тип развёртки : Прогрессивная
Метод сжатия : С потерями
Бит/(Пиксели*Кадры) : 0.197
Размер потока : 260 Мбайт (91%)
Библиотека кодирования : XviD 64
Аудио
Идентификатор : 1
Формат : MPEG Audio
Версия формата : Version 1
Профиль формата : Layer 3
Режим : Joint stereo
Идентификатор кодека : 55
Идентификатор кодека/Подсказка : MP3
Продолжительность : 27 м.
Вид битрейта : Постоянный
Битрейт : 112 Кбит/сек
Каналы : 2 канала
Частота : 48,0 КГц
Метод сжатия : С потерями
Размер потока : 21,9 Мбайт (8%)
Выравнивание : Соединение по промежуткам
Продолжительность промежутка : 34 мс. (1,02 видеокадр)
Время предзагрузки промежутка : 408 мс.
Общее
Полное имя : M:\Sport\Трейси_Андерсон\TA_Hipcentric\TA_Continuity 1.1_Hipcentric\Day 151-160.avi
Формат : AVI
Формат/Информация : Audio Video Interleave
Размер файла : 306 Мбайт
Продолжительность : 29 м.
Общий поток : 1459 Кбит/сек
Библиотека кодирования : TMPGEnc 4.0 XPress Version. 4.7.7.307
Видео
Идентификатор : 0
Формат : MPEG-4 Visual
Профиль формата : Advanced Simple@L5
Параметр BVOP формата : 1
Параметр QPel формата : Нет
Параметр GMC формата : Без точки перехода
Параметр матрицы формата : Default (MPEG)
Режим смешивания : Сжатый битовый поток
Идентификатор кодека : XVID
Идентификатор кодека/Подсказка : XviD
Продолжительность : 29 м.
Битрейт : 1332 Кбит/сек
Ширина : 640 пикселей
Высота : 352 пикселя
Соотношение сторон : 16:9
Частота кадров : 29,970 кадров/сек
Цветовое пространство : YUV
Субдискретизация насыщенности : 4:2:0
Битовая глубина : 8 бит
Тип развёртки : Прогрессивная
Метод сжатия : С потерями
Бит/(Пиксели*Кадры) : 0.197
Размер потока : 280 Мбайт (91%)
Библиотека кодирования : XviD 64
Аудио
Идентификатор : 1
Формат : MPEG Audio
Версия формата : Version 1
Профиль формата : Layer 3
Режим : Joint stereo
Расширение режима : MS Stereo
Идентификатор кодека : 55
Идентификатор кодека/Подсказка : MP3
Продолжительность : 29 м.
Вид битрейта : Постоянный
Битрейт : 112 Кбит/сек
Каналы : 2 канала
Частота : 48,0 КГц
Метод сжатия : С потерями
Размер потока : 23,5 Мбайт (8%)
Выравнивание : Соединение по промежуткам
Продолжительность промежутка : 34 мс. (1,03 видеокадр)
Время предзагрузки промежутка : 408 мс.
Общее
Полное имя : M:\Sport\Трейси_Андерсон\TA_Hipcentric\TA_Continuity 1.1_Hipcentric\Day 161-170.avi
Формат : AVI
Формат/Информация : Audio Video Interleave
Размер файла : 333 Мбайт
Продолжительность : 31 м.
Общий поток : 1459 Кбит/сек
Библиотека кодирования : TMPGEnc 4.0 XPress Version. 4.7.7.307
Видео
Идентификатор : 0
Формат : MPEG-4 Visual
Профиль формата : Advanced Simple@L5
Параметр BVOP формата : 1
Параметр QPel формата : Нет
Параметр GMC формата : Без точки перехода
Параметр матрицы формата : Default (MPEG)
Режим смешивания : Сжатый битовый поток
Идентификатор кодека : XVID
Идентификатор кодека/Подсказка : XviD
Продолжительность : 31 м.
Битрейт : 1332 Кбит/сек
Ширина : 640 пикселей
Высота : 352 пикселя
Соотношение сторон : 16:9
Частота кадров : 29,970 кадров/сек
Цветовое пространство : YUV
Субдискретизация насыщенности : 4:2:0
Битовая глубина : 8 бит
Тип развёртки : Прогрессивная
Метод сжатия : С потерями
Бит/(Пиксели*Кадры) : 0.197
Размер потока : 304 Мбайт (91%)
Библиотека кодирования : XviD 64
Аудио
Идентификатор : 1
Формат : MPEG Audio
Версия формата : Version 1
Профиль формата : Layer 3
Режим : Joint stereo
Расширение режима : MS Stereo
Идентификатор кодека : 55
Идентификатор кодека/Подсказка : MP3
Продолжительность : 31 м.
Вид битрейта : Постоянный
Битрейт : 112 Кбит/сек
Каналы : 2 канала
Частота : 48,0 КГц
Метод сжатия : С потерями
Размер потока : 25,5 Мбайт (8%)
Выравнивание : Соединение по промежуткам
Продолжительность промежутка : 34 мс. (1,02 видеокадр)
Время предзагрузки промежутка : 408 мс.
Общее
Полное имя : M:\Sport\Трейси_Андерсон\TA_Hipcentric\TA_Continuity 1.1_Hipcentric\Day 171-180.avi
Формат : AVI
Формат/Информация : Audio Video Interleave
Размер файла : 289 Мбайт
Продолжительность : 27 м.
Общий поток : 1459 Кбит/сек
Библиотека кодирования : TMPGEnc 4.0 XPress Version. 4.7.7.307
Видео
Идентификатор : 0
Формат : MPEG-4 Visual
Профиль формата : Advanced Simple@L5
Параметр BVOP формата : 1
Параметр QPel формата : Нет
Параметр GMC формата : Без точки перехода
Параметр матрицы формата : Default (MPEG)
Режим смешивания : Сжатый битовый поток
Идентификатор кодека : XVID
Идентификатор кодека/Подсказка : XviD
Продолжительность : 27 м.
Битрейт : 1331 Кбит/сек
Ширина : 640 пикселей
Высота : 352 пикселя
Соотношение сторон : 16:9
Частота кадров : 29,970 кадров/сек
Цветовое пространство : YUV
Субдискретизация насыщенности : 4:2:0
Битовая глубина : 8 бит
Тип развёртки : Прогрессивная
Метод сжатия : С потерями
Бит/(Пиксели*Кадры) : 0.197
Размер потока : 263 Мбайт (91%)
Библиотека кодирования : XviD 64
Аудио
Идентификатор : 1
Формат : MPEG Audio
Версия формата : Version 1
Профиль формата : Layer 3
Режим : Joint stereo
Расширение режима : MS Stereo
Идентификатор кодека : 55
Идентификатор кодека/Подсказка : MP3
Продолжительность : 27 м.
Вид битрейта : Постоянный
Битрейт : 112 Кбит/сек
Каналы : 2 канала
Частота : 48,0 КГц
Метод сжатия : С потерями
Размер потока : 22,2 Мбайт (8%)
Выравнивание : Соединение по промежуткам
Продолжительность промежутка : 34 мс. (1,02 видеокадр)
Время предзагрузки промежутка : 408 мс.
Общее
Полное имя : M:\Sport\Трейси_Андерсон\TA_Hipcentric\TA_Continuity 1.1_Hipcentric\Day 91-100.avi
Формат : AVI
Формат/Информация : Audio Video Interleave
Размер файла : 334 Мбайт
Продолжительность : 31 м.
Общий поток : 1460 Кбит/сек
Библиотека кодирования : TMPGEnc 4.0 XPress Version. 4.7.7.307
Видео
Идентификатор : 0
Формат : MPEG-4 Visual
Профиль формата : Advanced Simple@L5
Параметр BVOP формата : 1
Параметр QPel формата : Нет
Параметр GMC формата : Без точки перехода
Параметр матрицы формата : Default (MPEG)
Режим смешивания : Сжатый битовый поток
Идентификатор кодека : XVID
Идентификатор кодека/Подсказка : XviD
Продолжительность : 31 м.
Битрейт : 1332 Кбит/сек
Ширина : 640 пикселей
Высота : 352 пикселя
Соотношение сторон : 16:9
Частота кадров : 29,970 кадров/сек
Цветовое пространство : YUV
Субдискретизация насыщенности : 4:2:0
Битовая глубина : 8 бит
Тип развёртки : Прогрессивная
Метод сжатия : С потерями
Бит/(Пиксели*Кадры) : 0.197
Размер потока : 305 Мбайт (91%)
Библиотека кодирования : XviD 64
Аудио
Идентификатор : 1
Формат : MPEG Audio
Версия формата : Version 1
Профиль формата : Layer 3
Режим : Joint stereo
Расширение режима : MS Stereo
Идентификатор кодека : 55
Идентификатор кодека/Подсказка : MP3
Продолжительность : 31 м.
Вид битрейта : Постоянный
Битрейт : 112 Кбит/сек
Каналы : 2 канала
Частота : 48,0 КГц
Метод сжатия : С потерями
Размер потока : 25,6 Мбайт (8%)
Выравнивание : Соединение по промежуткам
Продолжительность промежутка : 35 мс. (1,04 видеокадр)
Время предзагрузки промежутка : 408 мс.
[teatrix.ru].t13384.torrent 
Торрент: Зарегистрирован [ 2016-01-22 01:35 ] · 577372987004DB1B70F235B7049FC83B942CBAA1

Скачать .torrent

Скачать

19 KB

Статус: проверено
Скачан: 1 раз
Размер: 3.46 GB
terms.php



Быстрый ответ

Имя:

      
Для отправки сообщений необходимо включить JavaScript
Показать сообщения:    

Текущее время: 09-Дек 06:58

Часовой пояс: UTC + 3


Вы можете начинать темы
Вы можете отвечать на сообщения
Вы не можете редактировать свои сообщения
Вы не можете удалять свои сообщения
Вы не можете голосовать в опросах
Вы не можете прикреплять файлы к сообщениям
Вы можете скачивать файлы