Fusion Fitness Dream Body Workout [2011, фитнес, DVDRip, ENG] (Видеоурок)


Статистика раздачи [Обновить пиров]
Размер:  393 MB   |    Зарегистрирован:  10 месяцев 19 дней   |    Скачан:  0 раз

Полного источника не было: Никогда

 
   
 
 
 

[Цитировать]

Fusion Fitness Dream Body Workout
Страна: США
Тематика: фитнес
Тип раздаваемого материала: Видеоурок
Продолжительность: 01:05:48
Год выпуска: 2011
Язык: Английский
Перевод: Отсутствует
Описание: Будте готовы шокировать своё тело, чтобы вывести ваши тренировки на совершенно новый уровень. Присоединяйтесь к фитнес эксперту Darby Brender и к миру тело-движений Fusion Dream Body Workout. Это стильно...Это весело... Эта тренировка, которая шокирует ваше тело, у вас будет красивая потрясающяя фигура, о которой вы даже не мечтали!
"Эта тренировка действительно шокирует ваше тело, что поможет удлинить и сформировать всё ваше тело," говорит Brender, владелица Fusion Fitness. Brender помогает женщинам достигать фигуры своей мечты с тех пор как открыла Fusion Fitness четыре года назад, она держит свою руку на пульсе и следит, кто работает с ее клиентами, проверяет расписание. Тренировка The Fusion Dream Body workout это мощная комбинация кардио и пилатеса, это помогает женщинам выстраивать сильные и сбалансированные тела.
"Я разработала тренировку, которая синхронизирована с беспокойной жизнью женщины," говорит Brender, чьё альтер-эго, Bubble Girl, сопровождает фьюженисток шаг за шагом в видео. “The Fusion Dream Body Workout это реальное жизненное решение для карьеры и материнства.”

Описание на английском

Get ready to shock your body to a whole new level of fitness. Join the fusionistas who have discovered fitness expert Darby Brender's body-bending world of the Fusion Dream Body Workout. It's funky...it's fun...it's a workout that shocks your body and goes beyond your dreams of being fit and fabulous!
“This workout actually shocks the body to a whole new level of fitness that helps lengthen and firm the entire body,” says Brender, owner of Fusion Fitness. Brender has been helping women attain the body of their dreams since opening Fusion Fitness four years ago, keeping her finger on the pulse of what works with her clients’
demanding schedules. The Fusion Dream Body workout is a powerful combination of cardio and Pilates that helps women develop strong and balanced bodies.
“I’ve developed a workout that is in sync with a woman’s hectic life,” says Brender, whose alter ego, Bubble Girl, leads the Fusionistas through the paces in the video. “The Fusion Dream Body Workout is a real­ life solution to the realities of careers and motherhood.”
Качество: DVDRip
Формат: MP4
Видео кодек: H.264
Аудио кодек: AAC
Видео: MPEG4 Video (H264) 720x408 698 Kbps 30.00fps
Аудио: AAC 44100Hz stereo 127kbps

MediaInfo

General
Complete name : C:...\Fusion Dream Body Part 1.mp4
Format : MPEG-4
Format profile : Base Media
Codec ID : isom
File size : 312 MiB
Duration : 52mn 21s
Overall bit rate : 834 Kbps
Tagged date : UTC 2014-01-12 01:27:11
Writing application : Lavf55.19.104
Video
ID : 1
Format : AVC
Format/Info : Advanced Video Codec
Format profile : High@L3.0
Format settings, CABAC : Yes
Format settings, ReFrames : 4 frames
Format settings, GOP : M=4, N=13
Codec ID : avc1
Codec ID/Info : Advanced Video Coding
Duration : 52mn 21s
Duration_LastFrame : -15ms
Bit rate mode : Variable
Bit rate : 698 Kbps
Width : 720 pixels
Height : 408 pixels
Display aspect ratio : 16:9
Frame rate mode : Constant
Frame rate : 30.000 fps
Color space : YUV
Chroma subsampling : 4:2:0
Bit depth : 8 bits
Scan type : Progressive
Bits/(Pixel*Frame) : 0.079
Stream size : 262 MiB (84%)
Writing library : x264 core 140 r2377M 1ca7bb9
Audio
ID : 2
Format : AAC
Format/Info : Advanced Audio Codec
Format profile : LC
Codec ID : 40
Duration : 52mn 21s
Bit rate mode : Variable
Bit rate : 128 Kbps
Maximum bit rate : 800 Kbps
Channel(s) : 2 channels
Channel positions : Front: L R
Sampling rate : 44.1 KHz
Compression mode : Lossy
Stream size : 47.9 MiB (15%)
Большое спасибо E.K.A. за эту тренировку!
[teatrix.ru].t13385.torrent 
Торрент: Зарегистрирован [ 2016-01-22 01:35 ] · D7320C452213022F53A412C46E8455651CFED0AC

Скачать .torrent

Скачать

16 KB

Статус: проверено
Скачан: 0 раз
Размер: 393 MB
terms.php



Быстрый ответ

Имя:

      
Для отправки сообщений необходимо включить JavaScript
Показать сообщения:    

Текущее время: 10-Дек 21:32

Часовой пояс: UTC + 3


Вы можете начинать темы
Вы можете отвечать на сообщения
Вы не можете редактировать свои сообщения
Вы не можете удалять свои сообщения
Вы не можете голосовать в опросах
Вы не можете прикреплять файлы к сообщениям
Вы можете скачивать файлы