barre3 Ballet Fit with Candace Ofcacek [2013, фитнес, DVDRip, ENG] (Видеоурок)


Статистика раздачи [Обновить пиров]
Размер:  291 MB   |    Зарегистрирован:  10 месяцев 11 дней   |    Скачан:  0 раз

Полного источника не было: Никогда

 
   
 
 
 

[Цитировать]

barre3 Ballet Fit with Candace Ofcacek
Страна: USA
Тематика: фитнес
Тип раздаваемого материала: Видеоурок
Продолжительность: 00:42:58
Год выпуска: 2013
Язык: Английский
Перевод: Отсутствует
Описание: Грациозность встречается с атлетизмом в этой 40-минутной тренировке на все тело. Вдохновленные балетом позиции представлены в свежем ключе, они разработаны для создания тела танцовщицы: высокого, плавного и грациозного. Кэндис объясняет все движения, так что они становятся просты в выполнении для быстрых результатов в формировании тела.
Требуются легкие гантели 1-2 фунта (450-900 грамм), мягкий мячик для пилатеса (или свернутое в рулон полотенце), стул.
Media Info

скрытый текст

Format : AVI
Format/Info : Audio Video Interleave
File size : 291 MiB
Duration : 42mn 57s
Overall bit rate : 947 Kbps
Writing library : MPlayer
Video
ID : 0
Format : MPEG-4 Visual
Format profile : Advanced Simple@L5
Format settings, BVOP : 2
Format settings, QPel : No
Format settings, GMC : No warppoints
Format settings, Matrix : Default (H.263)
Codec ID : XVID
Codec ID/Hint : XviD
Duration : 42mn 57s
Bit rate : 717 Kbps
Width : 720 pixels
Height : 400 pixels
Display aspect ratio : 16:9
Frame rate : 29.970 fps
Color space : YUV
Chroma subsampling : 4:2:0
Bit depth : 8 bits
Scan type : Progressive
Compression mode : Lossy
Bits/(Pixel*Frame) : 0.083
Stream size : 220 MiB (76%)
Writing library : XviD 1.1.2 (UTC 2006-11-01)
Audio
ID : 1
Format : MPEG Audio
Format version : Version 1
Format profile : Layer 3
Mode : Joint stereo
Mode extension : MS Stereo
Codec ID : 55
Codec ID/Hint : MP3
Duration : 42mn 57s
Bit rate mode : Constant
Bit rate : 224 Kbps
Channel(s) : 2 channels
Sampling rate : 44.1 KHz
Compression mode : Lossy
Delay relative to video : 33ms
Stream size : 68.8 MiB (24%)
Alignment : Split accross interleaves
Interleave, duration : 500 ms (14.98 video frames)
Interleave, preload duration : 500 ms
Writing library : LAME3.97
Качество: DVDRip
Формат: AVI
Видео кодек: XviD
Аудио кодек: MP3
Видео: Xvid 720x400 29.97fps 716kbps 16:9
Аудио: MPEG Audio Layer 3 44100Hz stereo 224kbps 2сh

Скриншоты

[teatrix.ru].t13387.torrent 
Торрент: Зарегистрирован [ 2016-01-22 01:35 ] · 9D912931DF6470825FE43F6BC948C4BE43B9B18E

Скачать .torrent

Скачать

12 KB

Статус: проверено
Скачан: 0 раз
Размер: 291 MB
terms.php



Быстрый ответ

Имя:

      
Для отправки сообщений необходимо включить JavaScript
Показать сообщения:    

Текущее время: 02-Дек 21:14

Часовой пояс: UTC + 3


Вы можете начинать темы
Вы можете отвечать на сообщения
Вы не можете редактировать свои сообщения
Вы не можете удалять свои сообщения
Вы не можете голосовать в опросах
Вы не можете прикреплять файлы к сообщениям
Вы можете скачивать файлы