Ali Owens - Feel Good Flow [2015, Yoga, WEBRip, ENG] (Видеоурок)


Статистика раздачи [Обновить пиров]
Размер:  402 MB   |    Зарегистрирован:  1 год   |    Скачан:  0 раз

Полного источника не было: Никогда

Личеров:  1  [  0 KB/s  ]   Подробная статистика пиров
 
   
 
 
 

[Цитировать]

Ali Owens - Feel Good Flow
Страна: USA
Автор: Ali Owens
Тематика: Yoga
Тип раздаваемого материала: Видеоурок
Продолжительность: 00:38:33
Год выпуска: 2015
Язык: Английский
Перевод: Отсутствует
Описание: Strong Yogi, is a quick and strong flow that begins with unique sun salutatons featuring fun strength challenges strategically placed in between flows to quickly build heat, flexibility and strength in a short amount of time. Great for when you need a fast and efficient total body flow. Live music by: James Stapleton Cotton, Debasish Chaudhuri, Masood Ali Khan, and Brent Kuecker. /
Сильные Йоги, быстры и сильны в потоках, который начинается с уникального приветствия солнцу весело показывая проблемы прочности стратегически расположенных между потоками быстро построить тепла, гибкость и прочность в короткий промежуток времени. Хорошо для тех, когда нужно быстро и эффективно общий поток тела. Живая музыка: Джеймс Стэплтон Котон, Дебашиш Чоудхури, Масуд Али Хан, и Брент Куекер.
Качество: WEBRip
Формат: MP4
Видео кодек: VC-1
Аудио кодек: AAC
Видео: AVC, 1280x720, 16:9, 24.00 fps, 1293 Kbps
Аудио: AAC, 48.0 KHz, 160 Kbps, 2 channels

MediaInfo

General
Format : MPEG-4
Format profile : Base Media / Version 2
Codec ID : mp42 (isom/iso2/avc1/mp41)
File size : 402 MiB
Duration : 38mn 33s
Overall bit rate mode : Variable
Overall bit rate : 1 459 Kbps
Encoded date : UTC 2036-02-06 06:28:16
Tagged date : UTC 2036-02-06 06:28:16
Writing application : HandBrake 0.10.2 2015060900
Video
ID : 1
Format : AVC
Format/Info : Advanced Video Codec
Format profile : Main@L4
Format settings, CABAC : Yes
Format settings, ReFrames : 4 frames
Codec ID : avc1
Codec ID/Info : Advanced Video Coding
Duration : 38mn 33s
Bit rate : 1 293 Kbps
Width : 1 280 pixels
Height : 720 pixels
Display aspect ratio : 16:9
Frame rate mode : Constant
Frame rate : 24.000 fps
Color space : YUV
Chroma subsampling : 4:2:0
Bit depth : 8 bits
Scan type : Progressive
Bits/(Pixel*Frame) : 0.058
Stream size : 357 MiB (89%)
Writing library : x264 core 142 r2479 dd79a61
Encoded date : UTC 2036-02-06 06:28:16
Tagged date : UTC 2036-02-06 06:28:16
Color range : Limited
Color primaries : BT.709
Transfer characteristics : BT.709
Matrix coefficients : BT.709
Audio
ID : 2
Format : AAC
Format/Info : Advanced Audio Codec
Format profile : LC
Codec ID : 40
Duration : 38mn 33s
Bit rate mode : Variable
Bit rate : 160 Kbps
Channel(s) : 2 channels
Channel positions : Front: L R
Sampling rate : 48.0 KHz
Frame rate : 46.875 fps (1024 spf)
Compression mode : Lossy
Stream size : 44.2 MiB (11%)
Title : Stereo / Stereo
Default : Yes
Alternate group : 1
Encoded date : UTC 2036-02-06 06:28:16
Tagged date : UTC 2036-02-06 06:28:16

Скриншоты

[teatrix.ru].t13404.torrent 
Торрент: Зарегистрирован [ 2016-01-22 01:35 ] · 87F2090ADA62203C8C1B94456EE103133D246425

Скачать .torrent

Скачать

16 KB

Статус: проверено
Скачан: 0 раз
Размер: 402 MB
terms.php



Быстрый ответ

Имя:

      
Для отправки сообщений необходимо включить JavaScript
Показать сообщения:    

Текущее время: 24-Янв 12:13

Часовой пояс: UTC + 3


Вы можете начинать темы
Вы можете отвечать на сообщения
Вы не можете редактировать свои сообщения
Вы не можете удалять свои сообщения
Вы не можете голосовать в опросах
Вы не можете прикреплять файлы к сообщениям
Вы можете скачивать файлы