The Yoga Collective - Blindfold Practice 60 min [2015, H.264, WEBRip, ENG] (Видеоурок)


Статистика раздачи [Обновить пиров]
Размер:  912 MB   |    Зарегистрирован:  10 месяцев 19 дней   |    Скачан:  0 раз
Сидов:  1  [  0 KB/s  ]   Подробная статистика пиров
 
   
 
 
 

[Цитировать]

Blindfold Practice 60 min- -Производитель: The Yoga Collective
Тип раздаваемого материала: Видеоурок
Автор: Vytas Baskauskas
Продолжительность: 01:04:14
Сайт производителя: www.theyogacollective.com
Год выпуска: 2015
Язык: Английский
Перевод: Отсутствует
Описание: A creative 60 minute sequence that will keep you guessing ... in the dark-В течение 60-минутного последовательность, которая позволит вам не нужно гадать ... в темноте
Level: Intermediate-
-

Media Info

General
Complete name : Vytas Baskauskas Yoga - Blindfold Practice 60 min.mp4
Format : MPEG-4
Format profile : Base Media / Version 2
Codec ID : mp42
File size : 912 MiB
Duration : 1h 4mn
Overall bit rate mode : Variable
Overall bit rate : 1 985 Kbps
Encoded date : UTC 2036-02-06 06:28:16
Tagged date : UTC 2036-02-06 06:28:16
Writing application : HandBrake 0.10.2 2015060900
Video
ID : 1
Format : AVC
Format/Info : Advanced Video Codec
Format profile : Main@L4.0
Format settings, CABAC : Yes
Format settings, ReFrames : 4 frames
Codec ID : avc1
Codec ID/Info : Advanced Video Coding
Duration : 1h 4mn
Bit rate : 1 818 Kbps
Width : 1 280 pixels
Height : 720 pixels
Display aspect ratio : 16:9
Frame rate mode : Variable
Frame rate : 23.976 fps
Minimum frame rate : 23.974 fps
Maximum frame rate : 23.981 fps
Color space : YUV
Chroma subsampling : 4:2:0
Bit depth : 8 bits
Scan type : Progressive
Bits/(Pixel*Frame) : 0.082
Stream size : 835 MiB (92%)
Writing library : x264 core 142 r2479 dd79a61
Encoded date : UTC 2036-02-06 06:28:16
Tagged date : UTC 2036-02-06 06:28:16
Color primaries : BT.709-5, BT.1361, IEC 61966-2-4, SMPTE RP177
Transfer characteristics : BT.709-5, BT.1361
Matrix coefficients : BT.709-5, BT.1361, IEC 61966-2-4 709, SMPTE RP177
Audio
ID : 2
Format : AAC
Format/Info : Advanced Audio Codec
Format profile : LC
Codec ID : 40
Duration : 1h 4mn
Bit rate mode : Variable
Bit rate : 161 Kbps
Channel(s) : 2 channels
Channel positions : Front: L R
Sampling rate : 48.0 KHz
Compression mode : Lossy
Stream size : 73.8 MiB (8%)
Title : Stereo
Encoded date : UTC 2036-02-06 06:28:16
Tagged date : UTC 2036-02-06 06:28:16
Формат: MP4
Видео кодек: H.264
Аудио кодек: AAC
Видео: AVC, 1280x720, 16:9, 25.000 fps, ~ 1818 Kbps
Аудио: AAC, 48.0 KHz, ~ 130.0 Kbps, 2 channels

Скриншоты

[teatrix.ru].t13408.torrent 
Торрент: Зарегистрирован [ 2016-01-22 01:35 ] · 0C7B6780E91B74FFE29AA5F1FB56E0485FEA708F

Скачать .torrent

Скачать

36 KB

Статус: проверено
Скачан: 0 раз
Размер: 912 MB
terms.php



Быстрый ответ

Имя:

      
Для отправки сообщений необходимо включить JavaScript
Показать сообщения:    

Текущее время: 10-Дек 17:44

Часовой пояс: UTC + 3


Вы можете начинать темы
Вы можете отвечать на сообщения
Вы не можете редактировать свои сообщения
Вы не можете удалять свои сообщения
Вы не можете голосовать в опросах
Вы не можете прикреплять файлы к сообщениям
Вы можете скачивать файлы