The Yoga Collective - Soulful Heart Opening Flow [2015, H.264, WEBRip, ENG] (Видеоурок)


Статистика раздачи [Обновить пиров]
Размер:  470 MB   |    Зарегистрирован:  10 месяцев 17 дней   |    Скачан:  0 раз

Полного источника не было: Никогда

 
   
 
 
 

[Цитировать]

Mountain Pose Series- -Производитель: The Yoga Collective
Тип раздаваемого материала: Видеоурок
Автор: Rachelle Tratt
Продолжительность: 30mn 13s
Сайт производителя: www.theyogacollective.com
Год выпуска: 2015
Язык: Английский
Перевод: Отсутствует
Описание: На этом занятии основное внимание уделяется созданию тепла, перемещение тела, открытие сердца, и очистка.-This class focuses on building heat, moving the body, opening up the heart, and clearing the mind.--Level: Intermediate
Style: Vinyasa, Power
Focus: Heart Openers, Backbends, Cardio, Core, Shoulders, Super Sweaty Flow-
-

Media Info

General
Complete name : Rachelle Tratt Yoga - Soulful Heart Opening Flow 30 min.mp4
Format : MPEG-4
Format profile : Base Media / Version 2
Codec ID : mp42
File size : 470 MiB
Duration : 33mn 7s
Overall bit rate mode : Variable
Overall bit rate : 1 985 Kbps
Encoded date : UTC 2036-02-06 06:28:16
Tagged date : UTC 2036-02-06 06:28:16
Writing application : HandBrake 0.10.2 2015060900
Video
ID : 1
Format : AVC
Format/Info : Advanced Video Codec
Format profile : Main@L4.0
Format settings, CABAC : Yes
Format settings, ReFrames : 4 frames
Codec ID : avc1
Codec ID/Info : Advanced Video Coding
Duration : 33mn 7s
Bit rate : 1 818 Kbps
Width : 1 280 pixels
Height : 720 pixels
Display aspect ratio : 16:9
Frame rate mode : Variable
Frame rate : 23.976 fps
Minimum frame rate : 23.974 fps
Maximum frame rate : 23.981 fps
Color space : YUV
Chroma subsampling : 4:2:0
Bit depth : 8 bits
Scan type : Progressive
Bits/(Pixel*Frame) : 0.082
Stream size : 431 MiB (92%)
Writing library : x264 core 142 r2479 dd79a61
Encoded date : UTC 2036-02-06 06:28:16
Tagged date : UTC 2036-02-06 06:28:16
Color primaries : BT.709-5, BT.1361, IEC 61966-2-4, SMPTE RP177
Transfer characteristics : BT.709-5, BT.1361
Matrix coefficients : BT.709-5, BT.1361, IEC 61966-2-4 709, SMPTE RP177
Audio
ID : 2
Format : AAC
Format/Info : Advanced Audio Codec
Format profile : LC
Codec ID : 40
Duration : 33mn 7s
Bit rate mode : Variable
Bit rate : 160 Kbps
Channel(s) : 2 channels
Channel positions : Front: L R
Sampling rate : 48.0 KHz
Compression mode : Lossy
Stream size : 38.0 MiB (8%)
Title : Stereo
Encoded date : UTC 2036-02-06 06:28:16
Tagged date : UTC 2036-02-06 06:28:16

Скриншоты

[teatrix.ru].t13416.torrent 
Торрент: Зарегистрирован [ 2016-01-22 01:35 ] · 0B7284C3BD2BAC0D6D4725F8735303FC9B08E510

Скачать .torrent

Скачать

37 KB

Статус: проверено
Скачан: 0 раз
Размер: 470 MB
terms.php



Быстрый ответ

Имя:

      
Для отправки сообщений необходимо включить JavaScript
Показать сообщения:    

Текущее время: 08-Дек 17:26

Часовой пояс: UTC + 3


Вы можете начинать темы
Вы можете отвечать на сообщения
Вы не можете редактировать свои сообщения
Вы не можете удалять свои сообщения
Вы не можете голосовать в опросах
Вы не можете прикреплять файлы к сообщениям
Вы можете скачивать файлы