[Udemy] Meditation First Step - - - Last Step [2015, WEBRip, ENG] (Видеоурок)


Статистика раздачи [Обновить пиров]
Размер:  70 MB   |    Зарегистрирован:  10 месяцев 14 дней   |    Скачан:  0 раз

Полного источника не было: Никогда

 
   
 
 
 

[Цитировать]

Meditation First Step - - - Last Step
Год выпуска: 2015
Производитель: Udemy
Сайт производителя: www.udemy.com/meditation-first-step-last-step/
Автор: Bhushan Kulkarni
Продолжительность: 1 hours
Тип раздаваемого материала: Видеоурок
Язык: Английский
Описание: Медитация первый шаг - - - последний шаг
Что такое медитация ?
Каковы методы медиации ?
Чем медитация не является ?
Медитация является очень простой, мы усложняем его . Мы плести паутину идей вокруг него , что это такое ? , Что это не так ? , Потому что это так просто , что ускользает от нас .
Медитация , естественно, приходит с необычайной легкостью, когда мы ходим, или смотреть из нашего окна .

Содержание

Section 1: First Step
Section 2: Meditation
Section 3: Last Step

Media Info

Format : MPEG-4
Format profile : Base Media
Codec ID : isom
File size : 12.5 MiB
Duration : 6mn 44s
Overall bit rate mode : Variable
Overall bit rate : 259 Kbps
Encoded date : UTC 2015-05-10 19:35:40
Tagged date : UTC 2015-05-10 19:35:40
Video
ID : 1
Format : AVC
Format/Info : Advanced Video Codec
Format profile : Baseline@L3.1
Format settings, CABAC : No
Format settings, ReFrames : 3 frames
Format settings, GOP : M=1, N=50
Codec ID : avc1
Codec ID/Info : Advanced Video Coding
Duration : 6mn 44s
Bit rate : 156 Kbps
Maximum bit rate : 379 Kbps
Width : 1 280 pixels
Height : 720 pixels
Display aspect ratio : 16:9
Frame rate mode : Constant
Frame rate : 25.000 fps
Color space : YUV
Chroma subsampling : 4:2:0
Bit depth : 8 bits
Scan type : Progressive
Bits/(Pixel*Frame) : 0.007
Stream size : 7.50 MiB (60%)
Writing library : Zencoder Video Encoding System
Encoded date : UTC 2015-05-10 19:35:11
Tagged date : UTC 2015-05-10 19:35:40
Audio
ID : 2
Format : AAC
Format/Info : Advanced Audio Codec
Format profile : LC
Codec ID : 40
Duration : 6mn 44s
Bit rate mode : Variable
Bit rate : 100 Kbps
Maximum bit rate : 105 Kbps
Channel(s) : 2 channels
Channel positions : Front: L R
Sampling rate : 48.0 KHz
Compression mode : Lossy
Stream size : 4.83 MiB (39%)
Encoded date : UTC 2015-05-10 19:35:40
Tagged date : UTC 2015-05-10 19:35:40
Файлы примеров: отсутствуют
Качество: WEBRip
Формат видео: MP4
Видео: AVC, 1280x720, 16:9, 25.000 fps, ~ 156 Kbps
Аудио: AAC, 48.0 KHz, ~ 100.0 Kbps, 2 channels

Скриншоты

Описание на английском языке

Meditation First Step - - - Last Step
What is Meditation ?
What are the techniques of Mediation ?
What Meditation is not ?
Meditation is very simple, we complicate it. We weave a web of ideas around it, what it is ?, what it is not ?, Because it is so simple, it escapes us.
Meditation comes naturally with extraordinary ease, when we walk, or look out of our window.
This courses answers the above questions and much more. Efforts are made to simplify the concept. It also includes the following topics -
Prayer - the greatest power available to the individual.
Autosuggestion - has helped many in achieving their goals.
Relaxation technique - this will help you if you are tired, stressed, anxious or tense.
Concentration - his is the only tool for high achievements.
Vipassana or Mindfulness - to see the things as the are.
You may have a question, why the above are also mentioned in same course?
The reason the above are mentioned because Meditation is often confused with concentration or relaxation or autosuggestion. So first we are understanding what are all these and when we are clear that these are not Mediation, we will look into what is Mediation.
[teatrix.ru].t13420.torrent 
Торрент: Зарегистрирован [ 2016-01-22 01:35 ] · E8D1822E9473E21B01D259D1F7F5F7F17F06BE09

Скачать .torrent

Скачать

7 KB

Статус: проверено
Скачан: 0 раз
Размер: 70 MB
terms.php



Быстрый ответ

Имя:

      
Для отправки сообщений необходимо включить JavaScript
Показать сообщения:    

Текущее время: 05-Дек 05:31

Часовой пояс: UTC + 3


Вы можете начинать темы
Вы можете отвечать на сообщения
Вы не можете редактировать свои сообщения
Вы не можете удалять свои сообщения
Вы не можете голосовать в опросах
Вы не можете прикреплять файлы к сообщениям
Вы можете скачивать файлы