Хатха Йога. Последовательность начального уровня с элементами среднего [2015, йога, HDRip, RUS] (Видеоурок)


Статистика раздачи [Обновить пиров]
Размер:  1.16 GB   |    Зарегистрирован:  10 месяцев 13 дней   |    Скачан:  0 раз
Сидов:  19  [  0 KB/s  ]   Личеров:  3  [  0 KB/s  ]   Подробная статистика пиров
 
   
 
 

[Цитировать]

Хатха Йога. Последовательность начального уровня с элементами среднего
Страна: Россия
Тематика: йога
Тип раздаваемого материала: Видеоурок
Продолжительность: 01:06:25
Год выпуска: 2015
orenyoga
Язык: Русский
Перевод: Не требуется
Описание: Эффективный комплекс упражнений, для развитие гибкости всего тела. С помощью предложенных упражнений вы улучшите гибкость и подвижность суставов, вытяните позвоночник, избавитесь от мышечных зажимов и жесткости сухожилий, обретете гибкие и стройные ноги и руки.
Автор и исполнитель комплекса: инструктор йоги Алексей Лиханов.
Содержание: Разминка Сурья Намаскар (Приветствие Солнцу), Базовый комплекс асан, Шавасана.
Качество: HDRip
Формат: AVI
Видео кодек: XviD
Аудио кодек: MP3
Видео: XviD, 640х360 pixels (16:9), 2296Kbps, 25 fps
Аудио: MP3, 192 Kbps, 44.1 KHz, 2 ch

MediaInfo

Общее
Полное имя : F:\Хатха Йога. Последовательность начального (среднего) уровня.avi
Формат : AVI
Формат/Информация : Audio Video Interleave
Размер файла : 1,16 Гбайт
Продолжительность : 1 ч. 6 м.
Общий поток : 2501 Кбит/сек
Видео
Идентификатор : 0
Формат : MPEG-4 Visual
Профиль формата : Advanced Simple@L4
Параметр BVOP формата : Нет
Параметр QPel формата : Нет
Параметр GMC формата : Без точки перехода
Параметр матрицы формата : Default (H.263)
Идентификатор кодека : XVID
Идентификатор кодека/Подсказка : XviD
Продолжительность : 1 ч. 6 м.
Битрейт : 2296 Кбит/сек
Ширина : 640 пикселей
Высота : 360 пикселей
Соотношение сторон : 16:9
Частота кадров : 25,000 кадров/сек
Цветовое пространство : YUV
Субдискретизация насыщенности : 4:2:0
Битовая глубина : 8 бит
Тип развёртки : Прогрессивная
Метод сжатия : С потерями
Бит/(Пиксели*Кадры) : 0.399
Размер потока : 1,07 Гбайт (92%)
Аудио
Идентификатор : 1
Формат : MPEG Audio
Версия формата : Version 1
Профиль формата : Layer 3
Идентификатор кодека : 55
Идентификатор кодека/Подсказка : MP3
Продолжительность : 1 ч. 6 м.
Вид битрейта : Постоянный
Битрейт : 192 Кбит/сек
Каналы : 2 канала
Частота : 44,1 КГц
Метод сжатия : С потерями
Размер потока : 91,2 Мбайт (8%)
Выравнивание : Разделение по промежуткам
Продолжительность промежутка : 26 мс. (0,65 видеокадр)
Библиотека кодирования : LAME3.98.2

MediaInfo источника

Video
Format : VC-1
Format profile : MP@HL
Codec ID : WMV3
Codec ID/Info : Windows Media Video 9
Bit rate mode : Constant
Bit rate : 5 213 Kbps
Width : 1 280 pixels
Height : 720 pixels
Display aspect ratio : 16:9
Frame rate : 25.000 fps
Bit depth : 8 bits
Audio
Format : WMA
Format version : Version 2
Codec ID/Info : Windows Media Audio
Description of the codec : Windows Media Audio 9.2 - 320 kbps, 44 kHz, stereo (A/V) 1-pass CBR
Bit rate : 320 Kbps
Channel(s) : 2 channels
Sampling rate : 44.1 KHz
Bit depth : 16 bits
Stream size : 152 MiB (8%)
[teatrix.ru].t13421.torrent 
Торрент: Зарегистрирован [ 2016-01-22 01:35 ] · 85632E9DC37EBF1A8579D969340C10B443A99690

Скачать .torrent

Скачать

12 KB

Статус: проверено
Скачан: 0 раз
Размер: 1.16 GB
terms.php



Быстрый ответ

Имя:

      
Для отправки сообщений необходимо включить JavaScript
Показать сообщения:    

Текущее время: 04-Дек 13:09

Часовой пояс: UTC + 3


Вы можете начинать темы
Вы можете отвечать на сообщения
Вы не можете редактировать свои сообщения
Вы не можете удалять свои сообщения
Вы не можете голосовать в опросах
Вы не можете прикреплять файлы к сообщениям
Вы можете скачивать файлы