Йога для начинающих с Луизой Сиар и Рэйчел Зинман / Luisa Sear & Rachel Zinman – Yoga: Beginners Class I [2005, Хатха-йога, DVDRip, RUS] (Видеоурок)


Статистика раздачи [Обновить пиров]
Размер:  494 MB   |    Зарегистрирован:  10 месяцев 19 дней   |    Скачан:  0 раз

Полного источника не было: Никогда

Личеров:  3  [  0 KB/s  ]   Подробная статистика пиров
 
   
 
 
 

[Цитировать]

Йога для начинающих с Луизой Сиар и Рэйчел Зинман / Luisa Sear & Rachel Zinman – Yoga: Beginners Class I
Страна: США
Тематика: Хатха-йога
Тип раздаваемого материала: Видеоурок
Продолжительность: 00:48:00
Год выпуска: 2005
Выпущено: Студия Quantum Leap
Язык: Русский
Перевод: Профессиональный (одноголосый закадровый)
Описание: Видео-курс для самых начинающих. Около часа занятий йогой под расслабляющую музыку. Каждое из представленных упражнений достаточно простое, чтобы даже далекий от физкультуры человек мог его изобразить. Инструкторши работают в паре — одна показывает как должно смотреться это упражнение «в идеале», вторая — как начинающий может сделать его правильно, но чтобы и ему было комфортно.
Качество: DVDRip
Формат: MP4
Видео кодек: H.264
Аудио кодек: AAC
Видео: MPEG4 Video (H264) 640x480 25fps 1059kbps
Аудио: AAC 48000Hz stereo 128kbps

MediaInfo

ОбщееПолное имя : F:\Йога для начинающих с Луизой Сиар и Рэйчел Зинман.mp4Формат : MPEG-4Профиль формата : Base Media / Version 2Идентификатор кодека : mp42Размер файла : 494 МбайтПродолжительность : 58 м.Общий поток : 1192 Кбит/секДата кодирования : UTC 2014-08-28 18:01:26Дата пометки : UTC 2014-08-28 18:01:26
ВидеоИдентификатор : 2Формат : AVCФормат/Информация : Advanced Video CodecПрофиль формата : Main@L3.1Параметр CABAC формата : ДаПараметр ReFrames формата : 2 кадраПараметр GOP формата : M=2, N=24Идентификатор кодека : avc1Идентификатор кодека/Информация : Advanced Video CodingПродолжительность : 58 м.Битрейт : 1059 Кбит/секШирина : 640 пикселейВысота : 480 пикселейСоотношение сторон : 4:3Режим частоты кадров : ПостоянныйЧастота кадров : 25,000 кадров/секСтандарт вещания : NTSCЦветовое пространство : YUVСубдискретизация насыщенности : 4:2:0Битовая глубина : 8 битТип развёртки : ПрогрессивнаяБит/(Пиксели*Кадры) : 0.138Размер потока : 439 Мбайт (89%)Язык : EnglishДата кодирования : UTC 2014-08-28 18:01:26Дата пометки : UTC 2014-08-28 18:01:26colour_range : Limited
АудиоИдентификатор : 1Формат : AACФормат/Информация : Advanced Audio CodecПрофиль формата : LCИдентификатор кодека : 40Продолжительность : 58 м.Вид битрейта : ПостоянныйБитрейт : 128 Кбит/секКаналы : channel0Channel(s)_Original : 2 каналаРасположение каналов : Front: L RЧастота : 48,0 КГцМетод сжатия : С потерямиРазмер потока : 53,1 Мбайт (11%)Язык : EnglishДата кодирования : UTC 2014-08-28 18:01:26Дата пометки : UTC 2014-08-28 18:01:26

Скриншоты

[teatrix.ru].t13426.torrent 
Торрент: Зарегистрирован [ 2016-01-22 01:35 ] · 2832678B50A8037E0281A4019240BD87D118F957

Скачать .torrent

Скачать

20 KB

Статус: проверено
Скачан: 0 раз
Размер: 494 MB
terms.php



Быстрый ответ

Имя:

      
Для отправки сообщений необходимо включить JavaScript
Показать сообщения:    

Текущее время: 11-Дек 01:23

Часовой пояс: UTC + 3


Вы можете начинать темы
Вы можете отвечать на сообщения
Вы не можете редактировать свои сообщения
Вы не можете удалять свои сообщения
Вы не можете голосовать в опросах
Вы не можете прикреплять файлы к сообщениям
Вы можете скачивать файлы