Йога-Радуга (Михаил Баранов) [2011, Документальный, WEBRip] original rus


Статистика раздачи [Обновить пиров]
Размер:  700 MB   |    Зарегистрирован:  10 месяцев 16 дней   |    Скачан:  0 раз

Полного источника не было: Никогда

Личеров:  3  [  0 KB/s  ]   Подробная статистика пиров
 
   
 
 
 

[Цитировать]

Йога-Радуга-- Страна: Россия
Жанр: Документальный
Год выпуска: 2011
Продолжительность: 01:11:38
Язык: Русский--Режиссер: Михаил Баранов--Описание: Документальный фильм Михаила Баранова о фестивале "Йога-Радуга" в Чирали (Турция), 1-7 мая 2011. Фрагменты мастер-классов, мини-интервью с преподавателями, виды прекрасного Чирали и необычные саундтреки.--Качество видео: WEBRip
Формат видео: MP4
Видео: AVC, 720x576@1024x576, 16:9, 25.000 fps, 1234 kbps
Аудио: AAC, 48 kHz, 2.0 (stereo), 128 kbps-
-

MediaInfo

=== Общие ===
Полное имя : Yoga.Rainbow.2011.mp4
Формат : MPEG-4
Профиль формата : Base Media / Version 2
Идентификатор кодека : mp42
Размер файла : 700 Мб
Длительность : 1ч 11мин
Режим общего битрейта : Переменный
Общий битрейт : 1 366 кбит/сек
Дата кодирования : UTC 2011-06-20 21:24:30
Дата описания : UTC 2011-06-20 22:01:29
Програмное обеспечение : HandBrake 0.9.4 2009112300
=== Видео ===
ID (Идентификатор) : 1
Формат : AVC
Описание формата : Advanced Video Codec
Профиль формата : Main@L3.0
Параметр 'CABAC' : Да
Параметр 'ReFrames' : 2 frames
Идентификатор кодека : avc1
Информация о кодеке : Advanced Video Coding
Длительность : 1ч 11мин
Тип битрейта : Переменный
Битрейт : 1 234 кбит/сек
Ширина кадра : 720 пикселей
Высота кадра : 576 пикселей
Соотношение сторон : 16:9
Тип частоты кадров : Переменный
Частота кадров : 25.000 кадров/сек
Minimum frame rate : 12.498 fps
Maximum frame rate : 25.000 fps
Стандарт : PAL
Цветовое пространство : YUV
Субдискретизация насыщенности : 4:2:0
Глубина (разрядность) : 8 bits
Тип развертки : Прогрессивная
Бит/(пиксель*кадр) : 0.119
Размер потока : 632 Мб (90%)
Кодирующая библиотека : x264 core 79 r1347 5ddd61b
Параметры кодирования : cabac=1 / ref=2 / deblock=1:0:0 / analyse=0x1:0x111 / me=hex / subme=6 / psy=1 / psy_rd=1.0:0.0 / mixed_ref=0 / me_range=16 / chroma_me=1 / trellis=0 / 8x8dct=0 / cqm=0 / deadzone=21,11 / chroma_qp_offset=-2 / threads=3 / nr=0 / decimate=1 / mbaff=0 / constrained_intra=0 / bframes=2 / b_pyramid=0 / b_adapt=1 / b_bias=0 / direct=1 / wpredb=0 / wpredp=2 / keyint=250 / keyint_min=25 / scenecut=40 / rc_lookahead=40 / rc=2pass / mbtree=1 / bitrate=1234 / ratetol=1.0 / qcomp=0.60 / qpmin=10 / qpmax=51 / qpstep=4 / cplxblur=20.0 / qblur=0.5 / ip_ratio=1.40 / aq=1:1.00
Дата кодирования : UTC 2011-06-20 21:24:30
Дата описания : UTC 2011-06-20 22:01:29
Color primaries : BT.601-6 525, BT.1358 525, BT.1700 NTSC, SMPTE 170M
Transfer characteristics : BT.709-5, BT.1361
Matrix coefficients : BT.601-6 525, BT.1358 525, BT.1700 NTSC, SMPTE 170M
=== Аудио ===
ID (Идентификатор) : 2
Формат : AAC
Описание формата : Advanced Audio Codec
Профиль формата : LC
Идентификатор кодека : 40
Длительность : 1ч 11мин
Тип битрейта : Переменный
Битрейт : 128 кбит/сек
Максимальный битрейт : 235 кбит/сек
Канал(ы) : 2 каналов
Расположение каналов : Front: L R
Частота дискретизации : 48.0 кГц
Режим сжатия : С потерями
Размер потока : 65.6 Мб (9%)
Язык : Russian
Дата кодирования : UTC 2011-06-20 21:24:30
Дата описания : UTC 2011-06-20 22:01:29
=== Текст ===
ID (Идентификатор) : 3
Формат : Apple text
Идентификатор кодека : Текст
Длительность : 1ч 11мин
Тип битрейта : Постоянный
Битрейт : 1 bps
Размер потока : 624 байт (0%)
Дата кодирования : UTC 2011-06-20 21:24:31
Дата описания : UTC 2011-06-20 22:01:29

-
-

СкриншотыСкриншоты без учета анаморфа!

Скриншоты c учетом анаморфа 16:9

[teatrix.ru].t13427.torrent 
Торрент: Зарегистрирован [ 2016-01-22 01:35 ] · 8B275A2D563C1E97226F599ECCC0007CBD60E06D

Скачать .torrent

Скачать

14 KB

Статус: проверено
Скачан: 0 раз
Размер: 700 MB
terms.php



Быстрый ответ

Имя:

      
Для отправки сообщений необходимо включить JavaScript
Показать сообщения:    

Текущее время: 07-Дек 23:20

Часовой пояс: UTC + 3


Вы можете начинать темы
Вы можете отвечать на сообщения
Вы не можете редактировать свои сообщения
Вы не можете удалять свои сообщения
Вы не можете голосовать в опросах
Вы не можете прикреплять файлы к сообщениям
Вы можете скачивать файлы