Йога с Кариной Харчинской / Йога з Кариною Харчинською (1-54 уроки) [2010-2013, Йога, TVRip, RUS] (Видеоурок)


Статистика раздачи [Обновить пиров]
Размер:  7.43 GB   |    Зарегистрирован:  10 месяцев 15 дней   |    Скачан:  0 раз

Полного источника не было: Никогда

Личеров:  3  [  0 KB/s  ]   Подробная статистика пиров
 
   
 
 
 

[Цитировать]

Йога с Кариной Харчинской / Йога з Кариною Харчинською (1-54 уроки)
Страна: Украина
Тематика: Йога
Тип раздаваемого материала: Видеоурок
Продолжительность: 54 х 00:30:00
Год выпуска: 2010-2013
Язык: Русский
Перевод: Не требуется
Описание: Очаровательная ведущая программы, Карина Харчинская раскрывает многие тонкости йогических оздоровительных упражнений.
Мир заиграет новыми красками, все вокруг преобразится, а проблемы и усталость пройдут как утренняя роса на нежном цветке лотоса!
Доп. информация: 54 урока по 30 минут
Качество: TVRip
Формат: AVI
Видео кодек: XviD
Аудио кодек: AC3
Видео: xvid, 650 Кбит/сек, 512x384 (4:3), 25,000 кадров/сек
Аудио: AC3, 96,0 Кбит/сек, 1 канал, 44,1 КГц

Media info

Формат: xvid
Идентификатор кодека: xvid
Продолжительность: 31 м.
Битрейт: 648 Кбит/сек
Ширина: 512 пикселей
Высота: 384 пикселя
Соотношение сторон: 4:3
Частота кадров: 25,000 кадров/сек
Бит/(Пиксели*Кадры): 0.132
Размер потока: 145 Мбайт (86%)
Аудио
Идентификатор: 1
Формат: АС-3
Формат/Информация: Audio Coding 3
Расширение режима: CM (complete main)
Параметр Endianness формата: Big
Идентификатор кодека: 2000
Продопжительность: 31 м.
Вид битрейта: Постоянный
Битрейт: 96,0 Кбит/сек
Каналы: 1 канал
Распопожение каналов: Front: С
Частота: 44,1 КГц
Битовая глубина: 16 бит
Метод сжатия: С потерями
Размер потока: 21,5 Мбайт (13%)
Выравнивание: Соединение по промежуткам
Продопжитепьность промежутка: 35 мс. (0,87 видеокадр)

Скриншоты

Звук синхронизирован!
[teatrix.ru].t13428.torrent 
Торрент: Зарегистрирован [ 2016-01-22 01:35 ] · F625F9C36D542F070978466C72A03A5D53A807E8

Скачать .torrent

Скачать

22 KB

Статус: проверено
Скачан: 0 раз
Размер: 7.43 GB
terms.php



Быстрый ответ

Имя:

      
Для отправки сообщений необходимо включить JavaScript
Показать сообщения:    

Текущее время: 06-Дек 21:00

Часовой пояс: UTC + 3


Вы можете начинать темы
Вы можете отвечать на сообщения
Вы не можете редактировать свои сообщения
Вы не можете удалять свои сообщения
Вы не можете голосовать в опросах
Вы не можете прикреплять файлы к сообщениям
Вы можете скачивать файлы