Хатха-йога с Варварой Любимовой и Андреем Рыжакиным [2010, Хатха-йога, SATRip, RUS]


Статистика раздачи [Обновить пиров]
Размер:  19.92 GB   |    Зарегистрирован:  10 месяцев 12 дней   |    Скачан:  4 раза

Полного источника не было: 9 часов

Личеров:  3  [  0 KB/s  ]   Подробная статистика пиров
 
   
 
 
 

[Цитировать]

Хатха-йога с Варварой Любимовой и Андреем Рыжакиным
Страна: Россия
Тематика: Хатха-йога
Тип раздаваемого материала: Видеоуроки
Продолжительность: 33 × 00:52:00
Год выпуска: 2010
Язык: Русский
Перевод: Не требуется
Описание: Один из самых популярных видов йоги. Видеоуроки с Варварой Любимовой и Андреем Рыжакиным гармонизируют разум и развивают тело. Выполняя асаны, дыхательные упражнения и медитации дома, вы сможете освободить жизненную энергию, направив ее в нужное русло.
Качество: SATRip
Формат: MP4
Видео кодек: H.264
Аудио кодек: AAC
Видео: AVC, 720×576 (4:3), 1500 кбит/с, 50 fps
Аудио: AAC, 262 кбит/с, 48.0 KHz, 2ch

MediaInfo

General
Complete name : G:\JV\Хатха-йога с Варварой Любимовой и Андреем Рыжакиным\10.mp4
Format : MPEG-4
Format profile : Base Media / Version 2
Codec ID : mp42
File size : 618 MiB
Duration : 52mn 0s
Overall bit rate mode : Variable
Overall bit rate : 1 662 Kbps
Encoded date : UTC 2010-12-29 14:49:25
Tagged date : UTC 2010-12-29 14:49:25
Video
ID : 1
Format : AVC
Format/Info : Advanced Video Codec
Format profile : High@L3.2
Format settings, CABAC : Yes
Format settings, ReFrames : 4 frames
Codec ID : avc1
Codec ID/Info : Advanced Video Coding
Duration : 52mn 0s
Bit rate mode : Constant
Bit rate : 1 500 Kbps
Width : 720 pixels
Height : 576 pixels
Display aspect ratio : 4:3
Frame rate mode : Constant
Frame rate : 50.000 fps
Original frame rate : 25.000 fps
Standard : PAL
Color space : YUV
Chroma subsampling : 4:2:0
Bit depth : 8 bits
Scan type : Interlaced
Bits/(Pixel*Frame) : 0.072
Stream size : 558 MiB (90%)
Language : English
Encoded date : UTC 2010-12-29 14:49:25
Tagged date : UTC 2010-12-29 14:49:25
Color primaries : BT.601 PAL
Transfer characteristics : BT.470 System B, BT.470 System G
Matrix coefficients : BT.601
Audio
ID : 2
Format : AAC
Format/Info : Advanced Audio Codec
Format profile : LC
Codec ID : 40
Duration : 52mn 0s
Bit rate mode : Variable
Bit rate : 157 Kbps
Maximum bit rate : 262 Kbps
Channel(s) : 2 channels
Channel positions : Front: L R
Sampling rate : 48.0 KHz
Compression mode : Lossy
Stream size : 58.5 MiB (9%)
Language : English
Encoded date : UTC 2010-12-29 14:49:25
Tagged date : UTC 2010-12-29 14:49:25
[teatrix.ru].t13429.torrent 
Торрент: Зарегистрирован [ 2016-01-22 01:35 ] · F3CFA9755CE6E0041F309E2F5076966010D5DB45

Скачать .torrent

Скачать

52 KB

Статус: проверено
Скачан: 4 раз
Размер: 19.92 GB
terms.php



Быстрый ответ

Имя:

      
Для отправки сообщений необходимо включить JavaScript
Показать сообщения:    

Текущее время: 03-Дек 18:35

Часовой пояс: UTC + 3


Вы можете начинать темы
Вы можете отвечать на сообщения
Вы не можете редактировать свои сообщения
Вы не можете удалять свои сообщения
Вы не можете голосовать в опросах
Вы не можете прикреплять файлы к сообщениям
Вы можете скачивать файлы