Maya Fiennes - Yoga for Real Life [2012, Yoga, Йога, DVDRip, ENG] (Видеоурок)


Статистика раздачи [Обновить пиров]
Размер:  656 MB   |    Зарегистрирован:  10 месяцев 14 дней   |    Скачан:  2 раза

Полного источника не было: 1 месяц 1 день

Личеров:  3  [  0 KB/s  ]   Подробная статистика пиров
 
   
 
 
 

[Цитировать]

Maya Fiennes - Yoga for Real Life
Майя Файнз - Йога для Реальной Жизни
- Страна: U.S.
Тематика: Yoga
Тип раздаваемого материала: Видеоурок
Продолжительность: 00:59:27
Год выпуска: 2012
Язык: Английский
Перевод: Отсутствует-Описание: В этой практике, Майя переносит зрителей через серию упражнений, чтобы стимулировать мощные центры тела - чакры. Через дыхательные техники, движения и мантры, Майя демонстрирует, как очистить ум и тело, подготавливая зрителей воплотить все желания, в этой жизни.
Description: In this practice, Maya takes viewers through a series of exercises to stimulate the powerful centers in the body, the chakras. Through breathing techniques, movements and mantras, Maya demonstrates how to clear the mind and body, preparing viewers to manifest anything in life.-Качество: DVDRip
Формат: AVI
Видео кодек: XviD
Аудио кодек: MP3
Видео: 688x384 (16:9), 23.976 fps, 1405 Kbps
Аудио: 48 kHz, 128 Kbps, 2 ch-КНИГА / THE BOOK "Yoga for Real Life"

отчет MediaInfo

General
Complete name                            : Maya Fiennes - Yoga for Real Life.avi
Format                                   : AVI
Format/Info                              : Audio Video Interleave
File size                                : 656 MiB
Duration                                 : 59mn 27s
Overall bit rate                         : 1 543 Kbps
Writing application                      : V
Copyright                                : O
Video
ID                                       : 0
Format                                   : MPEG-4 Visual
Format profile                           : Advanced Simple@L5
Format settings, BVOP                    : 1
Format settings, QPel                    : No
Format settings, GMC                     : No warppoints
Format settings, Matrix                  : Custom
Codec ID                                 : XVID
Codec ID/Hint                            : XviD
Duration                                 : 59mn 27s
Bit rate                                 : 1 405 Kbps
Width                                    : 688 pixels
Height                                   : 384 pixels
Display aspect ratio                     : 16:9
Frame rate                               : 23.976 fps
Color space                              : YUV
Chroma subsampling                       : 4:2:0
Bit depth                                : 8 bits
Scan type                                : Progressive
Compression mode                         : Lossy
Bits/(Pixel*Frame)                       : 0.222
Stream size                              : 598 MiB (91%)
Writing library                          : XviD 65
Audio
ID                                       : 1
Format                                   : MPEG Audio
Format version                           : Version 1
Format profile                           : Layer 3
Mode                                     : Joint stereo
Mode extension                           : MS Stereo
Codec ID                                 : 55
Codec ID/Hint                            : MP3
Duration                                 : 59mn 27s
Bit rate mode                            : Constant
Bit rate                                 : 128 Kbps
Channel(s)                               : 2 channels
Sampling rate                            : 48.0 KHz
Compression mode                         : Lossy
Stream size                              : 54.4 MiB (8%)
Alignment                                : Split accross interleaves
Interleave, duration                     : 42 ms (1.00 video frame)
Interleave, preload duration             : 500 ms
[teatrix.ru].t13431.torrent 
Торрент: Зарегистрирован [ 2016-01-22 01:35 ] · 277C10547964C6C5FC296A847A5B3CBC8EDA3B57

Скачать .torrent

Скачать

13 KB

Статус: проверено
Скачан: 2 раз
Размер: 656 MB
terms.php



Быстрый ответ

Имя:

      
Для отправки сообщений необходимо включить JavaScript
Показать сообщения:    

Текущее время: 05-Дек 07:28

Часовой пояс: UTC + 3


Вы можете начинать темы
Вы можете отвечать на сообщения
Вы не можете редактировать свои сообщения
Вы не можете удалять свои сообщения
Вы не можете голосовать в опросах
Вы не можете прикреплять файлы к сообщениям
Вы можете скачивать файлы