Гималайские йоги - кто они? [2010, Йога, SATRip, RUS] (Видеоурок)


Статистика раздачи [Обновить пиров]
Размер:  1.4 GB   |    Зарегистрирован:  10 месяцев 18 дней   |    Скачан:  0 раз

Полного источника не было: Никогда

Личеров:  3  [  0 KB/s  ]   Подробная статистика пиров
 
   
 
 
 

[Цитировать]

Гималайские йоги - кто они?
Йога (Гималайская) - Мастер классы - Салунке Сумит Джаганнат 2010
Страна: Россия
Тематика: Йога
Тип раздаваемого материала: Видеоурок
Продолжительность: 4 урока по 52 мин
Год выпуска: 2010
Язык: Русский
Перевод: Не требуется
Описание: Гималайская йога - самый загадочный стиль йоги. Считается, что в нем соединены все известные на сегодня практики, а те, кто этим стилем занимается, обретут духовное просветление и будут жить до ста лет. Что из этого правда, а что ложь, рассказывает настоящий индийский йог Салунке Сумит Джаганнат, практикующий гималайский стиль уже много лет
Качество: SATRip
Формат: MP4
Видео кодек: H.264
Аудио кодек: AAC
Видео: MPEG4 Video (H264) 720x576 4:3 50fps 800kbps
Аудио: AAC 48000Hz stereo 157kbps 2ch

Скриншоты

Отчет MediaInfo

General
Complete name : Гималайская йога 1.mp4
Format : MPEG-4
Format profile : Base Media / Version 2
Codec ID : mp42
File size : 358 MiB
Duration : 52mn 0s
Overall bit rate mode : Constant
Overall bit rate : 963 Kbps
Encoded date : UTC 2011-10-26 07:35:51
Tagged date : UTC 2011-10-26 07:35:51
Video
ID : 1
Format : AVC
Format/Info : Advanced Video Codec
Format profile : High@L3.2
Format settings, CABAC : Yes
Format settings, ReFrames : 2 frames
Format settings, GOP : M=3, N=33
Codec ID : avc1
Codec ID/Info : Advanced Video Coding
Duration : 52mn 0s
Bit rate mode : Constant
Bit rate : 800 Kbps
Width : 720 pixels
Height : 576 pixels
Display aspect ratio : 4:3
Frame rate mode : Constant
Frame rate : 50.000 fps
Original frame rate : 25.000 fps
Standard : PAL
Color space : YUV
Chroma subsampling : 4:2:0
Bit depth : 8 bits
Scan type : Interlaced
Scan order : Top Field First
Bits/(Pixel*Frame) : 0.039
Stream size : 298 MiB (83%)
Language : English
Encoded date : UTC 2011-10-26 07:35:51
Tagged date : UTC 2011-10-26 07:35:51
Color primaries : BT.601 PAL
Transfer characteristics : BT.470 System B, BT.470 System G
Matrix coefficients : BT.601
Audio
ID : 2
Format : AAC
Format/Info : Advanced Audio Codec
Format profile : LC
Codec ID : 40
Duration : 52mn 0s
Bit rate mode : Constant
Bit rate : 157 Kbps
Nominal bit rate : 4 295 Mbps
Channel(s) : 2 channels
Channel positions : Front: L R
Sampling rate : 48.0 KHz
Compression mode : Lossy
Stream size : 58.5 MiB (16%)
Language : English
Encoded date : UTC 2011-10-26 07:35:51
Tagged date : UTC 2011-10-26 07:35:51
[teatrix.ru].t13434.torrent 
Торрент: Зарегистрирован [ 2016-01-22 01:35 ] · 60B63B78F70DC2996909118C23A8EF1E1050A927

Скачать .torrent

Скачать

15 KB

Статус: проверено
Скачан: 0 раз
Размер: 1.4 GB
terms.php



Быстрый ответ

Имя:

      
Для отправки сообщений необходимо включить JavaScript
Показать сообщения:    

Текущее время: 10-Дек 00:23

Часовой пояс: UTC + 3


Вы можете начинать темы
Вы можете отвечать на сообщения
Вы не можете редактировать свои сообщения
Вы не можете удалять свои сообщения
Вы не можете голосовать в опросах
Вы не можете прикреплять файлы к сообщениям
Вы можете скачивать файлы