Школа Чемпионов 2007-2008 Аллан Торнсберг. [2008 г., Латина. Бальные танцы, DVD5, RUS/ENG]


Статистика раздачи [Обновить пиров]
Размер:  4.31 GB   |    Зарегистрирован:  10 месяцев 19 дней   |    Скачан:  0 раз

Полного источника не было: Никогда

Личеров:  4  [  0 KB/s  ]   Подробная статистика пиров
 
   
 
 
 

[Цитировать]

Школа Чемпионов 2007-2008 Аллан Торнсберг.
Год выпуска: 2008
Страна: Germany
Жанр: Латина. Бальные танцы
Продолжительность: 3:38
Язык: Русский, Английский
Описание: Описание: Конгресс Школа Чемпионов проходит более, чем 30 лет. По своей значимости он существенно опережает другие аналогичные мероприятия.
Диск № 2. Аллан Торнсберг.
В танцах Пасодобль, Самба, Румба говорит о сути каждого танца. Особенно подробно рассматривает Пасодобль с точки зрения смысла, ритма, характера музыки, фразирования и акцентов. Большое внимание уделяет построению хореографии, размещению танцевальных фрагментов на площадке. Много демонстрирует в паре с Натальей Паниной (Голландия)
Качество: DVD5
Формат: DVD Video
Видео кодек: MPEG2
Аудио кодек: AC3
Видео: 720x576, 25 fps
Аудио: Русский, Английский, 48000Гц, 128кб/сек

Технические данные

General
Complete name : C:\Школа Чемпионов 2008 Alan Tornsberg\VIDEO_TS\VTS_01_5.VOB
Format : MPEG-PS
File size : 322 MiB
Duration : 16mn 31s
Overall bit rate : 2 722 Kbps
Video
ID : 224 (0xE0)
Format : MPEG Video
Format version : Version 2
Format profile : Main@Main
Format settings, Matrix : Default
Duration : 16mn 31s
Bit rate mode : Variable
Bit rate : 2 358 Kbps
Nominal bit rate : 8 900 Kbps
Width : 720 pixels
Height : 576 pixels
Display aspect ratio : 4:3
Frame rate : 25.000 fps
Standard : PAL
Colorimetry : 4:2:0
Scan type : Interlaced
Scan order : Top Field First
Bits/(Pixel*Frame) : 0.227
Audio #1
ID : 192 (0xC0)
Format : MPEG Audio
Format version : Version 1
Format profile : Layer 2
Duration : 16mn 31s
Bit rate mode : Constant
Bit rate : 128 Kbps
Channel(s) : 2 channels
Sampling rate : 48.0 KHz
Resolution : 16 bits
Video delay : -680ms
Stream size : 15.1 MiB (5%)
Audio #2
ID : 193 (0xC1)
Format : MPEG Audio
Format version : Version 1
Format profile : Layer 2
Duration : 16mn 31s
Bit rate mode : Constant
Bit rate : 128 Kbps
Channel(s) : 2 channels
Sampling rate : 48.0 KHz
Resolution : 16 bits
Video delay : -680ms
Stream size : 15.1 MiB (5%)

Скриншоты

[teatrix.ru].t13478.torrent 
Торрент: Зарегистрирован [ 2016-01-22 01:35 ] · B71319D3D810A38871B36FC9D83D61AC16DA317C

Скачать .torrent

Скачать

23 KB

Статус: проверено
Скачан: 0 раз
Размер: 4.31 GB
terms.php



Быстрый ответ

Имя:

      
Для отправки сообщений необходимо включить JavaScript
Показать сообщения:    

Текущее время: 10-Дек 09:57

Часовой пояс: UTC + 3


Вы можете начинать темы
Вы можете отвечать на сообщения
Вы не можете редактировать свои сообщения
Вы не можете удалять свои сообщения
Вы не можете голосовать в опросах
Вы не можете прикреплять файлы к сообщениям
Вы можете скачивать файлы