Nadira / 5-Layers From the Ground Up! [2010, DVDRip, ENG] (Видеоурок)


Статистика раздачи [Обновить пиров]
Размер:  743 MB   |    Зарегистрирован:  10 месяцев 16 дней   |    Скачан:  1 раз

Полного источника не было: 2 месяца 28 дней

Личеров:  4  [  0 KB/s  ]   Подробная статистика пиров
 
   
 
 
 

[Цитировать]

Nadira / 5-Layers From the Ground Up!
Страна: USA
Тип раздаваемого материала: Видеоурок
Продолжительность: 01:28:47
Год выпуска: 2010
Язык: Английский
Перевод: Отсутствует
Описание: There are so many nuances and complexities in bellydance, it's sometimes hard to figure out where to start. Starting at the feet and working your way up is a much more attainable way to understand and execute movement. It is about working smart, utilizing only the muscles you need.
Nadira will take you through a comprehensive breakdown of technique used in most bellydance movement, show you the best body alignment to get the most out of your dance and methods of layering with optional upgrades. Next you'll learn combinations to spice up your dance and she'll show you how it's all put together in a live performance. Whether you're just beginning or a seasoned professional, you will be challenged with this DVD.
Качество : DVDRip
Формат: AVI
Видео кодек: XviD
Аудио кодек: MP3
Видео: 640x480 (1.33:1), 29.970 fps, XviD build 50 ~1030 kbps avg, 0.11 bit/pixel
Аудио: 48 kHz, MPEG Layer 3, 2 ch, ~128.00 kbps avg

Отчет MediaInfo

General
Complete name : E:\Nadira_5-Layers_From_the_Ground_Up.avi
Format : AVI
Format/Info : Audio Video Interleave
File size : 743 MiB
Duration : 1h 28mn
Overall bit rate : 1 171 Kbps
Writing application : VirtualDubMod 1.5.10.2 (build 2540/release)
Writing library : VirtualDubMod build 2540/release
Video
ID : 0
Format : MPEG-4 Visual
Format profile : Advanced Simple@L5
Format settings, BVOP : Yes
Format settings, QPel : No
Format settings, GMC : No warppoints
Format settings, Matrix : Default (MPEG)
Codec ID : XVID
Codec ID/Hint : XviD
Duration : 1h 28mn
Bit rate : 1 031 Kbps
Width : 640 pixels
Height : 480 pixels
Display aspect ratio : 4:3
Frame rate : 29.970 fps
Color space : YUV
Chroma subsampling : 4:2:0
Bit depth : 8 bits
Scan type : Progressive
Compression mode : Lossy
Bits/(Pixel*Frame) : 0.112
Stream size : 655 MiB (88%)
Writing library : XviD 1.2.1 (UTC 2008-12-04)
Audio
ID : 1
Format : MPEG Audio
Format version : Version 1
Format profile : Layer 3
Codec ID : 55
Codec ID/Hint : MP3
Duration : 1h 28mn
Bit rate mode : Constant
Bit rate : 128 Kbps
Channel(s) : 2 channels
Sampling rate : 48.0 KHz
Compression mode : Lossy
Stream size : 81.3 MiB (11%)
Alignment : Aligned on interleaves
Interleave, duration : 33 ms (1.00 video frame)
Interleave, preload duration : 504 ms
Writing library : LAME3.98r
Encoding settings : -m s -V 4 -q 2 -lowpass 17 -b 128

Скриншоты


Скринлисты

[teatrix.ru].t13509.torrent 
Торрент: Зарегистрирован [ 2016-01-22 01:35 ] · F39271D8D3AD90DB75BBCD7EABFA3782651AF28D

Скачать .torrent

Скачать

15 KB

Статус: проверено
Скачан: 1 раз
Размер: 743 MB
terms.php



Быстрый ответ

Имя:

      
Для отправки сообщений необходимо включить JavaScript
Показать сообщения:    

Текущее время: 07-Дек 15:33

Часовой пояс: UTC + 3


Вы можете начинать темы
Вы можете отвечать на сообщения
Вы не можете редактировать свои сообщения
Вы не можете удалять свои сообщения
Вы не можете голосовать в опросах
Вы не можете прикреплять файлы к сообщениям
Вы можете скачивать файлы