Елена Шувалова «Уроки мастерства. Работа с сагатами (цимбалами)» [2005 г., Instructional, DVDRip, RUS]


Статистика раздачи [Обновить пиров]
Размер:  701 MB   |    Зарегистрирован:  10 месяцев 14 дней   |    Скачан:  0 раз

Полного источника не было: Никогда

 
   
 
 
 

[Цитировать]

Елена Шувалова «Уроки мастерства. Работа с сагатами (цимбалами)»
Год выпуска: 2005
Страна: Россия
Жанр: Instructional
Продолжительность:
Язык: Русский
Описание: Мастер-класс Елены Шуваловой. Два урока мастерства: техника исполнения и постановка танца с сагатами.
Качество: DVDRip
Формат: AVI
Видео кодек: XviD build 50
Аудио кодек: MPEG Layer 3
Видео: 624x480 (1.30:1), 25 fps, XviD build 50 ~932 kbps avg, 0.12 bit/pixel
Аудио: 48 kHz, MPEG Layer 3, 2 ch, ~128.00 kbps avg

Cагаты (цимбалы)

Cагаты (цимбалы) - маленькие металлические литавры, надевающиеся на большой и средний палец каждой руки. Это очень древний музыкальный инструмент который имеет аналоги во многих странах, к примеру в Украине - ложки, в Испании - костаньеты. С течением времени менялись материалы из которого изготавливали сагаты - дерево, слоновая кость, - и теперь сагаты делаются из латуни.
Если плохо владеть цимбалами, то весь танец, как правило, составляют так называемые "триады" или "галоп", резкий звук цимбал утомляет слушателя. Поэтому очень важно научиться использовать различные схемы для наиболее распространенных ритмов арабской музыки.
Но сначала нужно :
1. Купить сагаты – не такие, которые просто лязгают, а правильно сделанные, издающие приятный звук.
2. Убедиться, что в каждом сагате есть две дырочки для резинки (сагаты с одной дыркой бесполезны – их трудно контролировать).
Резинка должна быть шире, чем дырки – 2.5 сантиметра. Ее все равно можно просунуть, а из-за большей ширины она будет лучше держать сагаты на пальцах.
Желательно сшить концы каждой резинки друг с другом, используя крепкую нить (нейлон) - вид будет аккуратнее.
3. Надеть сагаты на пальцы, расположив их между ногтем и первым суставом.
4. Для начала лучше поиграть сагатами под углом (методика Деспины Розалес). Игра под углом очень важна для того, чтобы научиться контролю цимбал. Тренируйтесь и старайтесь управлять цимбалами так, чтобы они не лязгали, а по-настоящему звучали.
5. После нужно пробовать играть в положении, когда цимбалы находятся на одном уровне.
Программа:
1. Начинайте с базового ритма (максум, саиди, бэледи). Сначала отстукивайте ритм большими пальцами – просто чтобы понять, как это делается. Затем используйте другие пальцы – и всегда чередуйте их, например, большой с указательным, большой со средним и т.д.
2. Потренируйтесь с ритмами только на одной руке. Это замечательно повышает ловкость пальцев.
3. Вы еще не начали танцевать.
- Начните со спокойных движений, например, с простых базовых кругов бедрами, и добавьте ритм цимбал.
- Теперь – наоборот: начните с игры, и добавьте круги.
- Теперь начните одновременно и с игры и с танца.
4. Теперь поработайте с «ударным» движением.
- Толчки бедрами. Во время этого движения добавьте игру.
5. Проделайте в таком порядке все движения беллиденса, какие знаете.
6. Полезные упражнения:
- Оставаясь в одном ритме, меняйте технику.
- Соблюдая одну технику, меняйте ритм.
7. Совершенствование навыков танца и игры на цимбалах:
- Сядьте и просто начните играть. Если вы научитесь хорошо играть сидя, скорее всего, вам будет легче научиться хорошо играть и танцевать одновременно.
- НИКОГДА не забывайте повторять танцевальные базы.
8. Помните, что вы играете на ударном инструменте! Знайте меру. Вам нужно учиться играть так, чтобы вписываться в музыку. А это означает – менять ритмы в течение одной песни.
9. Помните также, что вам совсем не нужно играть на протяжении всей песни. Лучше делать паузы, особенно если вы только осваиваете это мастерство. Тогда, если вы вдруг внезапно решите перестать играть, зрителям не покажется, будто что-то у вас пошло не так.
Занятия:
Для цимбал существуют, пожалуй, три основных вида ударов: открытый, глухой и краешками.
Открытый удар - цимбалы быстро ударяются друг об друга и рука раскрывается, позволяя цимбалам свободно звучать.
Глухой - цимбалы остаются сомкнутыми, звук быстро гаснет, получается не звон, а лязганье или клацанье.
Краешками - цимбалы на больших пальцах ставятся вертикально, цимбалы на средних пальцах слегка прижимаются указательным и безымянным и краешком верхней (расположенной горизонтально) цимбалы начинаем ударять краешек цимбалы на большом пальце.
Специальные обозначения:
L - акцентированный удар левой рукой (DUM)
l - неакцетированный удар левой рукой (tek или ka)
R - акцентированный удар правой рукой (DUM)
r - неакцетированный удар правой рукой (tek или ka)
S - акцетированный удар двумя руками вместе (SLAP).

Технические данные

General
Complete name : D:\Elena Shuvalova_Rabota s sagatami.avi
Format : AVI
Format/Info : Audio Video Interleave
File size : 701 MiB
Duration : 1h 31mn
Overall bit rate : 1 070 Kbps
Writing application : VirtualDubMod 1.5.10.2 (build 2540/release)
Writing library : VirtualDubMod build 2540/release
Video
ID : 0
Format : MPEG-4 Visual
Format profile : AdvancedSimple@L5
Format settings, BVOP : Yes
Format settings, QPel : No
Format settings, GMC : No warppoints
Format settings, Matrix : Default (MPEG)
Codec ID : XVID
Codec ID/Hint : XviD
Duration : 1h 31mn
Bit rate : 932 Kbps
Width : 624 pixels
Height : 480 pixels
Display aspect ratio : 1.300
Frame rate : 25.000 fps
Resolution : 24 bits
Colorimetry : 4:2:0
Scan type : Progressive
Bits/(Pixel*Frame) : 0.125
Stream size : 611 MiB (87%)
Writing library : XviD 1.2.1 (UTC 2008-12-04)
Audio
ID : 1
Format : MPEG Audio
Format version : Version 1
Format profile : Layer 3
Codec ID : 55
Codec ID/Hint : MP3
Duration : 1h 31mn
Bit rate mode : Constant
Bit rate : 128 Kbps
Channel(s) : 2 channels
Sampling rate : 48.0 KHz
Resolution : 16 bits
Stream size : 83.9 MiB (12%)
Alignment : Aligned on interleaves
Interleave, duration : 40 ms (1.00 video frame)
Interleave, preload duration : 504 ms
Writing library : LAME3.98r
Encoding settings : -m s -V 4 -q 2 -lowpass 17 -b 128

Скриншоты


[teatrix.ru].t13519.torrent 
Торрент: Зарегистрирован [ 2016-01-22 01:35 ] · 5C1EC737E5C1AB52C7DD19492174EAA6AEDD52B9

Скачать .torrent

Скачать

14 KB

Статус: проверено
Скачан: 0 раз
Размер: 701 MB
terms.php



Быстрый ответ

Имя:

      
Для отправки сообщений необходимо включить JavaScript
Показать сообщения:    

Текущее время: 05-Дек 03:31

Часовой пояс: UTC + 3


Вы можете начинать темы
Вы можете отвечать на сообщения
Вы не можете редактировать свои сообщения
Вы не можете удалять свои сообщения
Вы не можете голосовать в опросах
Вы не можете прикреплять файлы к сообщениям
Вы можете скачивать файлы